.
Авторизация | Регистрация
Хочешь лучшие торренты? Добавь свой email!
Добавить
» » Любимая девушка (1940) SATRip от New-Team скачать через торрент бесплатно




    Любимая девушка (1940) SATRip от New-Team скачать через торрент бесплатно

    Опубликовал: Админ | Дата: 27-02-2015, 11:10 | Просмотров: 256


    Снималось в: СССР
    Создали в: Мосфильм
    Категория жанра: драма
    Создали в: 1940
    Время просмотра: 01:23:34
    Перевод текста:Не требуется
    Субтитры подготовлены: нет
    Оригинальная аудиодорожка: русский
    Главный режиссер: Иван Пырьев

    Актеры

    Марина Ладынина, Всеволод Санаев, Леонид Кмит, Александр Зражевский, Мария Яроцкая, Фаина Раневская, Александр Сашин-Никольский, Сергей Антимонов...
    Описание:
    Знаменитый токарь-многостаночник Московского автозавода получает новую квартиру и делает предложение любимой девушке Варе Лугиной. Варя отвечает согласием — и вскоре вся бригада празднует свадьбу.
    Однако после свадьбы муж продолжает ревновать Варю к другу ее детства, комсоргу цеха Симакову. В первую же ночь Варя бежит от мужа. Друзья и родные окружают молодую мать заботой и делают все, чтобы прекратить нелепую ссору молодоженов…



    Источник:DVB
    Качество фильма видео:SATRip
    Тип видео видео: AVI
    Виде: 640x480 (4:3), 25 fps, XviD ~ 1111 kbps avg, 0.145 bit/pixel
    Информация о звуке: 48 kHz, MP3 2.0, 128 kbps
    Раздача от:
    MediaInfo

    Общее
    Полное имя : Lyubimaya.devushka.1940.SATRip-745_New-team_by_AVP_Studio.avi
    Формат : AVI
    Формат/Информация : Audio Video Interleave
    Размер файла : 746 Мбайт
    Продолжительность : 1 ч. 23 м.
    Общий поток : 1249 Кбит/сек
    Программа кодирования : VirtualDubModRus 1.5.10.2 (build 2542/release)
    Библиотека кодирования : VirtualDubMod build 2542/release
    Видео
    Идентификатор : 0
    Формат : MPEG-4 Visual
    Профиль формата : Advanced Simple@L5
    Параметр BVOP формата : 1
    Параметр QPel формата : Нет
    Параметр GMC формата : Без точки перехода
    Параметр матрицы формата : Выборочная
    Идентификатор кодека : XVID
    Идентификатор кодека/Подсказка : XviD
    Продолжительность : 1 ч. 23 м.
    Битрейт : 1111 Кбит/сек
    Ширина : 640 пикселей
    Высота : 480 пикселей
    Соотношение сторон : 4:3
    Частота кадров : 25,000 кадров/сек
    Цветовое пространство : YUV
    Субдискретизация насыщенности : 4:2:0
    Битовая глубина : 8 бит
    Тип развёртки : Прогрессивная
    Метод сжатия : С потерями
    Бит/(Пиксели*Кадры) : 0.145
    Размер потока : 664 Мбайт (89%)
    Библиотека кодирования : XviD 73
    Аудио
    Идентификатор : 1
    Формат : MPEG Audio
    Версия формата : Version 1
    Профиль формата : Layer 3
    Идентификатор кодека : 55
    Идентификатор кодека/Подсказка : MP3
    Продолжительность : 1 ч. 23 м.
    Вид битрейта : Постоянный
    Битрейт : 128 Кбит/сек
    Каналы : 2 канала
    Частота : 48,0 КГц
    Метод сжатия : С потерями
    Размер потока : 76,5 Мбайт (10%)
    Выравнивание : Соединение по промежуткам
    Продолжительность промежутка : 40 мс. (1,00 видеокадр)
    Время предзагрузки промежутка : 504 мс.
    Библиотека кодирования : LAME3.99r
    Залил: AVPStudio
    Размер скачиваемого торрента: 746.23 MB (782483456 Bytes)


    Любимая девушка (1940) SATRip от New-Team скачать через торрент бесплатно
    загрузка...
    Рейтинг →
     (голосов: 1, оценка 5/5, голосовать можно 1 раз )

    Другие торренты по теме:

  • Любимая девушка / 1940 / РУ / DVB
  • Любимая девушка / 1940 / РУ / DVDRip


    • Комментарии (0):

      Информация

      Информация

        Посетители, находящиеся в группе Гости, не могут оставлять комментарии в данной новости.

        ↓ Меню



        ↓ Опрос

        А Вы добавили сайт в закладки?
        Да
        Не


        Top 10 за месяц (Фильмы)