.
Авторизация | Регистрация
Хочешь лучшие торренты? Добавь свой email!
Добавить
» » В моих мечтах / In My Dreams (2014) WEB-DLRip от BitTracker | iTunes скачать торрент бесплатно




    В моих мечтах / In My Dreams (2014) WEB-DLRip от BitTracker | iTunes скачать торрент бесплатно

    Опубликовал: Админ | Дата: 27-02-2015, 11:10 | Просмотров: 93


    Детально о кино
    Русское название:В моих мечтах
    Русское название в мировом прокате:In My Dreams
    Создали в:2014
    Категория жанра:драма, мелодрама
    Главный режиссер:Кенни Леон

    Актеры
    Кэтрин МакФи, Майк Фогель, ДжоБет Уильямс, Джо Массинджилл, Рэйчел Скарстен, Антонио Цупо, Джессалин Ванлим, Кьяра Дзанни, Эрик Кинлисайд, Эрика Кэрролл

    Сюжет фильма

    Ник и Натали являются идеальной парой, только они в действительности никогда не встречались. Бросив монетки в фонтан Хэйвард они стали мечтать друг о друге. По легенде фонтана у них есть ровно семь дней, чтобы превратить свои мечты в реальность.

    Снималось в:США
    Время просмотра:01:33:57
    Перевод текста:Профессиональный (многоголосый закадровый)iTunes
    Файл
    Кодек для видео:XviD
    Качество фильма:WEB-DLRip
    Информация о видео:624x352 (1.77:1), 23.976 fps, XviD build 73 ~971 kbps avg, 0.18 bit/pixel
    Информация о звуке:48 kHz, MPEG Layer 3, 2 ch, ~128.00 kbps avg
    Субтитры:нет
    Семпл
    MediaInfo

    Общее
    Полное имя : S:ФильмыВ моих мечтах. 2014. WEB-DLRip (AleksSin).avi
    Формат : AVI
    Формат/Информация : Audio Video Interleave
    Размер файла : 745 Мбайт
    Продолжительность : 1 ч. 33 м.
    Общий поток : 1108 Кбит/сек
    Программа кодирования : VirtualDubMod 1.5.10.3 | www.virtualdub-fr.org || (build 2550/release)
    Библиотека кодирования : VirtualDubMod build 2550/release
    Видео
    Идентификатор : 0
    Формат : MPEG-4 Visual
    Профиль формата : Advanced Simple@L5
    Параметр BVOP формата : 1
    Параметр QPel формата : Нет
    Параметр GMC формата : Без точки перехода
    Параметр матрицы формата : Выборочная
    Идентификатор кодека : XVID
    Идентификатор кодека/Подсказка : XviD
    Продолжительность : 1 ч. 33 м.
    Битрейт : 971 Кбит/сек
    Ширина : 624 пикс.
    Высота : 352 пикс.
    Соотношение сторон : 16:9
    Частота кадров : 23,976 кадр/сек
    Цветовое пространство : YUV
    Подвыборка цветности : 4:2:0
    Битовая глубина : 8 бит
    Тип развёртки : Прогрессивная
    Метод сжатия : С потерями
    Бит/(Пиксели*Кадры) : 0.184
    Размер потока : 652 Мбайт (88%)
    Библиотека кодирования : XviD 73
    Аудио
    Идентификатор : 1
    Формат : MPEG Audio
    Версия формата : Version 1
    Профиль формата : Layer 3
    Идентификатор кодека : 55
    Идентификатор кодека/Подсказка : MP3
    Продолжительность : 1 ч. 33 м.
    Вид битрейта : Постоянный
    Битрейт : 128 Кбит/сек
    Каналы : 2 канала
    Частота : 48,0 КГц
    Метод сжатия : С потерями
    Размер потока : 86,0 Мбайт (12%)
    Выравнивание : Соединение по промежуткам
    Продолжительность промежутка : 42 мс. (1,00 видеокадр)
    Время предзагрузки промежутка : 504 ms
    Библиотека кодирования : LAME3.99r
    Залил: *AleksSin*
    Размер скачиваемого торрента: 744.73 MB (780906496 Bytes)


    В моих мечтах/In My Dreams (2014) WEB-DLRip от BitTracker | iTunes торрент скачать бесплатно
    загрузка...
    Рейтинг →
     (голосов: 1, оценка 5/5, голосовать можно 1 раз )

    Другие торренты по теме:

  • А. В. Воронцов, А. М. Петров, Н. В. Захаров - Skoda Octavia A5. Пошаговый ремонт в фотографиях (2012) PDF
  • В раю, как в ловушке / Пойманный в раю / Trapped in Paradise (1994) DVDRip | P
  • Жданов В.Г. - Лекция в Воронеже в ВГСАУ (2013) HD 1080p
  • Жданов В.Г. - Лекция в Воронеже в ВГСАУ (2013) HDRip
  • Жданов В.Г. - Лекция в Воронеже в ВГСАУ (2013) HD 720p
  • Чижиков В.М., Чижиков В.В - Теория и практика социокультурного менеджмента (2008) PDF скачать через торрент бесплатно
  • Курасов В.С., Вербицкий В.В. - Топливо и смазочные материалы. Учебное пособие (2013) PDF
  • Косцов А.В., Косцов В.В. - Халявные программы для вашего компьютера (2014) PDF


    • Комментарии (0):

      Информация

      Информация

        Посетители, находящиеся в группе Гости, не могут оставлять комментарии в данной новости.

        ↓ Меню



        ↓ Опрос

        А Вы добавили сайт в закладки?
        Да
        Не


        Top 10 за месяц (Фильмы)