.
Авторизация | Регистрация
Хочешь лучшие торренты? Добавь свой email!
Добавить
» » Очень хорошие девочки / Very Good Girls (2013) BDRip 720p | KinoGadget | iPad скачать через торрент бесплатно




    Очень хорошие девочки / Very Good Girls (2013) BDRip 720p | KinoGadget | iPad скачать через торрент бесплатно

    Опубликовал: Админ | Дата: 27-02-2015, 11:10 | Просмотров: 149


    Создали в: 2013
    Снималось в: США
    Категория жанра: драма
    Время просмотра: 01:30:50
    Перевод текста: Профессиональный многоголосный
    Главный режиссер: Наоми Фонер

    Актеры
    Дакота Фэннинг, Элизабет Олсен, Бойд Холбрук, Эллен Баркин, Ричард Дрейфусс, Деми Мур, Стерлинг Джонс, Ленни Ароройо-Платт, Кирнан Шипка, Клер Фоли
    Описание: Две нью-йоркские девушки договариваются потерять свою девственность в первое лето после окончания школы. Но получается так, что они обе влюбляются в одного уличного артиста…

    Информация о видео кодек:MPEG-4 AVC
    Качество фильма:BDRip 720p
    Параметры Видео:1280x536, 23.976 fps; ~2 130 kbps avg
    Параметры Звука:48.0 KHz, AAC, ~192.00 kbps avg, 2ch
    Тип видео:mp4
    Релиз:
    Meta Tags


    MI
    General
    Complete name : E:Ochen_xoroshie_devochki.2013.P.BDRip.720p_KinoGadget.mp4
    Format : MPEG-4
    Format profile : Base Media
    Codec ID : isom
    File size : 1.48 GiB
    Duration : 1h 30mn
    Overall bit rate mode : Variable
    Overall bit rate : 2 327 Kbps
    Movie name : Очень хорошие девочки
    Performer : Наоми Фонер
    Genre : Drama
    ContentType : Short Film
    Recorded date : 2013
    Encoded date : UTC 2015-01-06 06:58:48
    Tagged date : UTC 2015-01-06 07:46:34
    Cover : Yes
    ContentRating : mpaa|R|400|
    LongDeion : Две нью-йоркские девушки договариваются потерять свою девственность в первое лето после окончания школы. Но получается так, что они обе влюбляются в одного уличного артиста…
    HDVideo : Yes
    Video
    ID : 1
    Format : AVC
    Format/Info : Advanced Video Codec
    Format profile : High@L4.1
    Format settings, CABAC : Yes
    Format settings, ReFrames : 10 frames
    Codec ID : avc1
    Codec ID/Info : Advanced Video Coding
    Duration : 1h 30mn
    Bit rate : 2 130 Kbps
    Maximum bit rate : 10.1 Mbps
    Width : 1 280 pixels
    Height : 536 pixels
    Display aspect ratio : 2.40:1
    Frame rate mode : Constant
    Frame rate : 23.976 fps
    Color space : YUV
    Chroma subsampling : 4:2:0
    Bit depth : 8 bits
    Scan type : Progressive
    Bits/(Pixel*Frame) : 0.130
    Stream size : 1.35 GiB (92%)
    Writing library : x264 core 130 r2273 b3065e6
    Encoding settings : cabac=1/ref=10/deblock=1:-1:-1/analyse=0x3:0x133/me=umh/subme=10/psy=1/psy_rd=1.00:0.15/mixed_ref=1/me_range=24/chroma_me=1/trellis=2/8x8dct=1/cqm=0/deadzone=21,11/fast_pskip=1/chroma_qp_offset=-3/threads=3/lookahead_threads=1/sliced_threads=0/nr=0/decimate=1/interlaced=0/bluray_compat=0/constrained_intra=0/bframes=6/b_pyramid=2/b_adapt=2/b_bias=0/direct=3/weightb=1/open_gop=0/weightp=2/keyint=250/keyint_min=23/scenecut=40/intra_refresh=0/rc_lookahead=60/rc=crf/mbtree=1/crf=18.0/qcomp=0.60/qpmin=0/qpmax=69/qpstep=4/ip_ratio=1.40/aq=1:1.00
    Encoded date : UTC 2015-01-06 06:58:48
    Tagged date : UTC 2015-01-06 06:59:55
    Audio
    ID : 2
    Format : AAC
    Format/Info : Advanced Audio Codec
    Format profile : LC
    Codec ID : 40
    Duration : 1h 30mn
    Bit rate mode : Variable
    Bit rate : 192 Kbps
    Maximum bit rate : 309 Kbps
    Channel count : 2 channels
    Original Channel count : 6 channels
    Channel positions : Front: L C R, Side: L R, LFE
    Sampling rate : 48.0 KHz
    Compression mode : Lossy
    Delay relative to video : 125ms
    Stream size : 122 MiB (8%)
    Encoded date : UTC 2015-01-06 06:59:49
    Tagged date : UTC 2015-01-06 06:59:55

    Скриншоты


    Залил: KinoGadget
    Размер скачиваемого торрента: 1.48 GB (1585629316 Bytes)

    Очень хорошие девочки/Very Good Girls (2013) BDRip 720p | KinoGadget | iPad скачать через торрент бесплатно
    загрузка...
    Рейтинг →
     (голосов: 1, оценка 4/5, голосовать можно 1 раз )

    Другие торренты по теме:

  • Очень хорошие девочки / Very Good Girls (2013) WEB-DL 720p | P
  • Очень хорошие девочки / Very Good Girls (2013) HDRip от Scarabey | Р


    • Комментарии (0):

      Информация

      Информация

        Посетители, находящиеся в группе Гости, не могут оставлять комментарии в данной новости.

        ↓ Меню



        ↓ Опрос

        А Вы добавили сайт в закладки?
        Да
        Не


        Top 10 за месяц (Фильмы)