.
Авторизация | Регистрация
Хочешь лучшие торренты? Добавь свой email!
Добавить
» » Ярость / Fury (2014) WEB-DL 1080p от Scarabey | iTunes скачать торрент бесплатно




    Ярость / Fury (2014) WEB-DL 1080p от Scarabey | iTunes скачать торрент бесплатно

    Опубликовал: Админ | Дата: 27-02-2015, 11:10 | Просмотров: 106


    Создали в:2014
    Снималось в:Великобритания, США, Китай
    Категория жанра:боевик, драма, военный
    Время просмотра:02:14:38
    Перевод текста:Професиональный (полное дублирование) iTunes
    Субтитры подготовлены:русские, украинские, английские - форсированные, на немецкую речь + английские - полные
    Главный режиссер:Дэвид Эйр/David Ayer

    Актеры
    Брэд Питт, Логан Лерман, Шайа ЛаБаф, Майкл Пенья, Джон Бернтал, Джейсон Айзекс, Джим Пэррак, Брэд Уильям Хенке, Кевин Вэнс, Завьер Сэмюэл, Анамария Маринка, Скотт Иствуд

    Описание фильма
    Стоит апрель 1945 года, и победа над немцами уже близка: союзники уверенно продвигаются вглубь вражеской территории, и оказываемое им сопротивление становится слабее день ото дня. Это, однако, совсем не значит, что на пути к победе союзные войска не потеряют еще множество людей, и многие солдаты сознают, что смерть ждет на расстоянии вытянутой руки. Среди закаленных в бою пессимистов, каждый день ведущих ожесточенные бои во имя победы, экипаж танка, на чьем дуле намалевано слово Ярость.
    Командир экипажа, известный как Уордэдди, воевавший с нацистскими войсками сначала в Африке, а потом в Европе, преследует одну цель — выжить в войне и сохранить жизнь своим людям. Этот относительно амбициозный план оказывается под угрозой, когда к его экипажу присоединяется зеленый новобранец Норман Эллисон, никогда раньше не воевавший и еще не успевший привыкнуть к тому, что должен быстро и без колебаний обрывать человеческие жизни. Надежда выжить становится совсем призрачной, когда экипажу Ярости приходится принять участие в самоубийственной миссии.
    Качество фильма видео:WEB-DL 1080p
    Тип видео видео:AVI
    Информация о видео:AVC at 3642 Кbps, 1920 x 798 (2.35) at 23.976 fps, 0.09 bit/pixel
    Информация о звуке №1:48 kHz, AC3 Dolby Digital, 3/2 (L,C,R,l,r) + LFE ch, ~384 kbps
    Информация о звуке №2:48 kHz, AC3 Dolby Digital, 3/2 (L,C,R,l,r) + LFE ch, ~384 kbps -оригинал
    Релиз подготовил:
    АНОНСЫ МОИХ РАЗДАЧ!

    Информация о видео - Fury.2014.1080p.WEB-DL.DD5.1.H264-RARBG
    Сборка - Scarabey

    МедиаИнфо

    Ярость hdFury.2014.1080p.WEB-DL_scarabey.org.mkv
    Format : Matroska
    Format version : Version 4/Version 2
    File size : 4.23 GiB
    Duration : 2h 14mn
    Overall bit rate : 4 500 Kbps
    Encoded date : UTC 2014-12-30 13:38:11
    Writing application : mkvmerge v6.1.0 (;Old Devil;) built on Mar 4 2013 09:10:42
    Writing library : libebml v1.3.0 + libmatroska v1.4.0
    Attachements : cover_land.jpg/small_cover.jpg/small_cover_land.jpg/cover.jpg
    Video
    ID : 1
    Format : AVC
    Format/Info : Advanced Video Codec
    Format profile : High@L4.0
    Format settings, CABAC : Yes
    Format settings, ReFrames : 5 frames
    Codec ID : V_MPEG4/ISO/AVC
    Duration : 2h 14mn
    Bit rate : 3 642 Kbps
    Width : 1 920 pixels
    Height : 798 pixels
    Display aspect ratio : 2.40:1
    Frame rate mode : Constant
    Frame rate : 23.976 fps
    Color space : YUV
    Chroma subsampling : 4:2:0
    Bit depth : 8 bits
    Scan type : Progressive
    Bits/(Pixel*Frame) : 0.099
    Stream size : 3.43 GiB (81%)
    Title : Fury.2014.1080p.WEB-DL.DD5.1.H264-RARBG
    Language : English
    Default : Yes
    Forced : No
    Color primaries : BT.709
    Transfer characteristics : BT.709
    Matrix coefficients : BT.709
    Color range : Limited
    Audio #1
    ID : 2
    Format : AC-3
    Format/Info : Audio Coding 3
    Mode extension : CM (complete main)
    Format settings, Endianness : Big
    Codec ID : A_AC3
    Duration : 2h 14mn
    Bit rate mode : Constant
    Bit rate : 384 Kbps
    Channel(s) : 2 channels
    Channel positions : Front: L R
    Sampling rate : 48.0 KHz
    Bit depth : 16 bits
    Compression mode : Lossy
    Stream size : 370 MiB (9%)
    Title : Дубляж - чистый звук
    Language : Russian
    Default : No
    Forced : No
    Audio #2
    ID : 3
    Format : AC-3
    Format/Info : Audio Coding 3
    Mode extension : CM (complete main)
    Format settings, Endianness : Big
    Codec ID : A_AC3
    Duration : 2h 14mn
    Bit rate mode : Constant
    Bit rate : 384 Kbps
    Channel(s) : 6 channels
    Channel positions : Front: L C R, Side: L R, LFE
    Sampling rate : 48.0 KHz
    Bit depth : 16 bits
    Compression mode : Lossy
    Stream size : 370 MiB (9%)
    Title : Оригинал
    Language : English
    Default : Yes
    Forced : No
    Text
    ID : 4
    Format : UTF-8
    Codec ID : S_TEXT/UTF8
    Codec ID/Info : UTF-8 Plain Text
    Language : English
    Default : Yes
    Forced : No
    Menu
    00:00:00.000 : en:1
    00:07:57.000 : en:2
    00:20:23.000 : en:3
    00:26:37.000 : en:4
    00:37:23.000 : en:5
    00:43:21.000 : en:6
    00:51:56.000 : en:7
    01:01:16.000 : en:8
    01:13:42.000 : en:9
    01:18:25.000 : en:10
    01:26:16.000 : en:11
    01:29:45.000 : en:12
    01:35:33.000 : en:13
    01:48:05.000 : en:14
    01:57:42.000 : en:15
    02:00:34.000 : en:16

    Скриншоты




    Размер скачиваемого торрента: 4.23 GB (4543831832 Bytes)

    Ярость/Fury (2014) WEB-DL 1080p от Scarabey | iTunes торрент скачать бесплатно
    загрузка...
    Рейтинг →
     (голосов: 1, оценка 4/5, голосовать можно 1 раз )

    Другие торренты по теме:

  • Могучие Рейнджеры: Ярость Джунглей / Power Rangers Jungle Fury (2008) DVDRip
  • Хроники Риддика: Тёмная ярость / Chronicles of Riddick: Dark Fury (2004) DVD5 от Youtracker | P | Лицензия
  • Слепая ярость / Blind Fury (1989) HDTVRip-AVC
  • Седьмoй элемeнт Ярость падших (2011) PC
  • Звук и ярость / De bruit et de fureur (1988) DVDRip-AVC от SergV | P
  • Ярость в клетке / Caged Fury (1990) TVRip | НТВ
  • Смертельная ярость / Dead Heat (1988) BDRip | P
  • Абсолютная ярость / Total Fury (2007) HDRip От Cmert | L1


    • Комментарии (0):

      Информация

      Информация

        Посетители, находящиеся в группе Гости, не могут оставлять комментарии в данной новости.

        ↓ Меню



        ↓ Опрос

        А Вы добавили сайт в закладки?
        Да
        Не


        Top 10 за месяц (Фильмы)