.
Авторизация | Регистрация
Хочешь лучшие торренты? Добавь свой email!
Добавить
» » Аномалия / The Anomaly (2014) BDRip 720p | KinoGadget | iPad скачать торрент бесплатно




    Аномалия / The Anomaly (2014) BDRip 720p | KinoGadget | iPad скачать торрент бесплатно

    Опубликовал: Админ | Дата: 27-02-2015, 11:10 | Просмотров: 106


    Создали в: 2014
    Снималось в: Великобритания
    Категория жанра: фантастика, боевик, триллер
    Время просмотра: 01:36:38
    Перевод текста: Дублированный
    Главный режиссер: Ноэль Кларк

    Актеры
    Ноэль Кларк, Иэн Сомерхолдер, Брайан Кокс, Алексис Нэп, Люк Хемсворт, Ниал Грег Фултон, Майкл Биспинг, Али Кук, Арт Паркинсон
    Описание: Бывший солдат попадает в плен. Очнувшись, он узнает, что у него осталось всего несколько минут, чтобы понять, как он туда попал…

    Информация о видео кодек:MPEG-4 AVC
    Качество фильма:BDRip 720p
    Параметры Видео:1280x544, 23.976 fps; ~2 630 kbps avg
    Параметры Звука:48.0 KHz, AAC, ~192.00 kbps avg, 2ch
    Тип видео:mp4
    Релиз:
    Meta Tags


    MI
    General
    Complete name : E:Anomaliya.2014.D.h264.BDRip.720p_KinoGadget.mp4
    Format : MPEG-4
    Format profile : Base Media
    Codec ID : isom
    File size : 1.91 GiB
    Duration : 1h 36mn
    Overall bit rate mode : Variable
    Overall bit rate : 2 828 Kbps
    Movie name : Аномалия
    Performer : Ноэль Кларк
    Genre : Action, Thriller
    ContentType : Short Film
    Recorded date : 2014
    Encoded date : UTC 2015-01-03 15:39:52
    Tagged date : UTC 2015-01-03 15:53:51
    Cover : Yes
    LongDeion : Бывший солдат попадает в плен. Очнувшись, он узнает, что у него осталось всего несколько минут, чтобы понять, как он туда попал…
    HDVideo : Yes
    Video
    ID : 1
    Format : AVC
    Format/Info : Advanced Video Codec
    Format profile : High@L4.1
    Format settings, CABAC : Yes
    Format settings, ReFrames : 11 frames
    Codec ID : avc1
    Codec ID/Info : Advanced Video Coding
    Duration : 1h 36mn
    Bit rate : 2 630 Kbps
    Maximum bit rate : 11.4 Mbps
    Width : 1 280 pixels
    Height : 544 pixels
    Display aspect ratio : 2.35:1
    Frame rate mode : Constant
    Frame rate : 23.976 fps
    Color space : YUV
    Chroma subsampling : 4:2:0
    Bit depth : 8 bits
    Scan type : Progressive
    Bits/(Pixel*Frame) : 0.158
    Stream size : 1.78 GiB (93%)
    Writing library : x264 core 130 r2273 b3065e6
    Encoding settings : cabac=1/ref=11/deblock=1:-2:-2/analyse=0x3:0x133/me=umh/subme=11/psy=1/psy_rd=1.00:0.20/mixed_ref=1/me_range=24/chroma_me=1/trellis=2/8x8dct=1/cqm=0/deadzone=21,11/fast_pskip=1/chroma_qp_offset=-3/threads=3/lookahead_threads=1/sliced_threads=0/nr=0/decimate=1/interlaced=0/bluray_compat=0/constrained_intra=0/bframes=8/b_pyramid=2/b_adapt=2/b_bias=0/direct=3/weightb=1/open_gop=0/weightp=2/keyint=250/keyint_min=23/scenecut=40/intra_refresh=0/rc_lookahead=60/rc=crf/mbtree=1/crf=18.0/qcomp=0.60/qpmin=0/qpmax=69/qpstep=4/ip_ratio=1.40/aq=1:0.80
    Encoded date : UTC 2015-01-03 15:39:52
    Tagged date : UTC 2015-01-03 15:41:22
    Audio
    ID : 2
    Format : AAC
    Format/Info : Advanced Audio Codec
    Format profile : LC
    Codec ID : 40
    Duration : 1h 36mn
    Bit rate mode : Variable
    Bit rate : 192 Kbps
    Maximum bit rate : 246 Kbps
    Channel count : 2 channels
    Original Channel count : 6 channels
    Channel positions : Front: L C R, Side: L R, LFE
    Sampling rate : 48.0 KHz
    Compression mode : Lossy
    Delay relative to video : 125ms
    Stream size : 131 MiB (7%)
    Encoded date : UTC 2015-01-03 15:41:15
    Tagged date : UTC 2015-01-03 15:41:22

    Скриншоты


    Залил: KinoGadget
    Размер скачиваемого торрента: 1.91 GB (2049643655 Bytes)

    Аномалия/The Anomaly (2014) BDRip 720p | KinoGadget | iPad торрент скачать бесплатно
    загрузка...
    Рейтинг →
     (голосов: 1, оценка 5/5, голосовать можно 1 раз )

    Другие торренты по теме:

  • Хапров Алексей - Аномалия души (2012) MP3
  • S.T.A.L.K.E.R.: Call of Pripyat - Sleep Of Reason - Пространственная аномалия (2014) PC | RePack by SeregA-Lus
  • Аномалия / The Anomaly
  • Аномалия / The Anomaly (2014) HDRip | Лицензия
  • Аномалия / The Anomaly (2014) HDRip-AVC от New-Team | D | Лицензия
  • Аномалия / The Anomaly (2014) HDRip-AVC от New-Team | D | Лицензия
  • Аномалия / The Anomaly (2014) HDRip от Generalfilm | КПК | Лицензия
  • Аномалия / The Anomaly (2014) BDRip 1080p от MediaClub | D | Лицензия


    • Комментарии (0):

      Информация

      Информация

        Посетители, находящиеся в группе Гости, не могут оставлять комментарии в данной новости.

        ↓ Меню



        ↓ Опрос

        А Вы добавили сайт в закладки?
        Да
        Не


        Top 10 за месяц (Фильмы)