.
Авторизация | Регистрация
Хочешь лучшие торренты? Добавь свой email!
Добавить
» » Босс в гостиной / Un boss in salotto (2014) НDRip от BitTracker | L1 скачать через торрент бесплатно




    Босс в гостиной / Un boss in salotto (2014) НDRip от BitTracker | L1 скачать через торрент бесплатно

    Опубликовал: Админ | Дата: 27-02-2015, 11:10 | Просмотров: 101


    Детально о кино
    Русское название:Босс в гостиной
    Русское название в мировом прокате:Un boss in salotto
    Создали в:2014
    Категория жанра:Комедия
    Главный режиссер:Лука Миньеро

    Актеры
    Паола Кортеллези, Рокко Папалео, Лука Арджентеро, Анджела Финоккьяро, Але, Франц, Массимо Де Лоренцо

    Сюжет фильма

    Кристина успешный врач-трансплантолог, живущий в небольшом городке на севере Италии. Ей удалось построить идеальную семью с мужем Микеле и двумя прекрасными детьми. Однажды после звонка в полицейский участок Кристина узнаёт, что её брат замешан в крупном процессе над мафией. Брат, которого, она не видела 15 лет, просит провести некоторое время под домашним арестом в её доме. Через силу Кристина даёт своё согласие. Все планы и привычная рутина семьи пойдут кувырком после появления в ней не приученного к хорошим манерам всего в татуировках и золотых цепях дядюшки Чиро.

    Снималось в:Италия
    Киностудия:Cattleya, Warner Bros. Entertainment
    Время просмотра:01:42:03
    Перевод текста:Любительский одноголосыйИгорь Головин
    Файл
    Кодек для видео:XviD
    Качество фильма:НDRip(Исх. BDRip 720p)
    Информация о видео:640x272 (2.35:1), 23.976 fps, XviD build 73 ~884 kbps avg, 0.21 bit/pixel
    Информация о звуке:48 kHz, MPEG Layer 3, 2 ch, ~128.00 kbps avg
    Субтитры:нет
    Семпл
    MediaInfo

    Общее
    Полное имя : S:ФильмыБосс в гостиной. 2014. HDRip. (AleksSin).avi
    Формат : AVI
    Формат/Информация : Audio Video Interleave
    Размер файла : 745 Мбайт
    Продолжительность : 1 ч. 42 м.
    Общий поток : 1021 Кбит/сек
    Программа кодирования : VirtualDubMod 1.5.10.3 | www.virtualdub-fr.org || (build 2550/release)
    Библиотека кодирования : VirtualDubMod build 2550/release
    Видео
    Идентификатор : 0
    Формат : MPEG-4 Visual
    Профиль формата : Advanced Simple@L5
    Параметр BVOP формата : 1
    Параметр QPel формата : Нет
    Параметр GMC формата : Без точки перехода
    Параметр матрицы формата : Выборочная
    Идентификатор кодека : XVID
    Идентификатор кодека/Подсказка : XviD
    Продолжительность : 1 ч. 42 м.
    Битрейт : 884 Кбит/сек
    Ширина : 640 пикс.
    Высота : 272 пикс.
    Соотношение сторон : 2,35:1
    Частота кадров : 23,976 кадр/сек
    Цветовое пространство : YUV
    Подвыборка цветности : 4:2:0
    Битовая глубина : 8 бит
    Тип развёртки : Прогрессивная
    Метод сжатия : С потерями
    Бит/(Пиксели*Кадры) : 0.212
    Размер потока : 645 Мбайт (87%)
    Библиотека кодирования : XviD 73
    Аудио
    Идентификатор : 1
    Формат : MPEG Audio
    Версия формата : Version 1
    Профиль формата : Layer 3
    Идентификатор кодека : 55
    Идентификатор кодека/Подсказка : MP3
    Продолжительность : 1 ч. 42 м.
    Вид битрейта : Постоянный
    Битрейт : 128 Кбит/сек
    Каналы : 2 канала
    Частота : 48,0 КГц
    Метод сжатия : С потерями
    Размер потока : 93,4 Мбайт (13%)
    Выравнивание : Соединение по промежуткам
    Продолжительность промежутка : 42 мс. (1,00 видеокадр)
    Время предзагрузки промежутка : 504 ms
    Библиотека кодирования : LAME3.99r
    Залил: *AleksSin*
    Размер скачиваемого торрента: 745.44 MB (781649920 Bytes)


    Босс в гостиной/Un boss in salotto (2014) НDRip от BitTracker | L1 скачать через торрент бесплатно
    загрузка...
    Рейтинг →
     (голосов: 1, оценка 4/5, голосовать можно 1 раз )

    Другие торренты по теме:

  • Босс в гостиной / Un boss in salotto (2014) HDRip | L 1 скачать через торрент бесплатно
  • Босс в гостиной / Un boss in salotto (2014)


    • Комментарии (0):

      Информация

      Информация

        Посетители, находящиеся в группе Гости, не могут оставлять комментарии в данной новости.

        ↓ Меню



        ↓ Опрос

        А Вы добавили сайт в закладки?
        Да
        Не


        Top 10 за месяц (Фильмы)