.
Авторизация | Регистрация
Хочешь лучшие торренты? Добавь свой email!
Добавить
» » Рождественские каникулы / Christmas Vacation (1989) BDRip 720p | D, P, P2, A скачать через торрент бесплатно




    Рождественские каникулы / Christmas Vacation (1989) BDRip 720p | D, P, P2, A скачать через торрент бесплатно

    Опубликовал: Админ | Дата: 27-02-2015, 11:10 | Просмотров: 144



    Детально о кино
    Русское название: Рождественские каникулы
    Русское название в мировом прокате: Christmas Vacation
    Создали в: 1989
    Категория жанра:Рождественская комедия
    Главный режиссер: Джеримайя С. Чечик

    Актеры
    Чеви Чейз, Беверли Д`Анджело, Джульетт Льюис, Джонни Галецки, Джон Рэндольф, Дайан Лэдд, И.Г. Маршалл, Дорис Робертс, Рэнди Куэйд, Мириам Флинн, Cody Burger, Ellen Hamilton Latzen, Уильям Хикки, Mae Questel, Сэм МакМюррей, Николас Гест, Джулия Луис-Дрейфус, Николетт Скорсезе, Keith MacKechnie, Брайан Дойл-Мюррэй, Наталия Ногулич


    Сюжет фильма
    В доме Грисуолдов празднуют Рождество. Время, когда дарят подарки, звучат гимны, радостно мерцают огоньки рождественской елки… Но погодите-ка: эта елка вовсе не мерцает. Она вся в огне! Рождество — прекрасное время для Кларка Грисуолда и его семьи.
    Кларк — это стихийное бедствие, которое может обрушиться на вас в любой момент. Теперь Кларк хочет во что бы то ни стало устроить своей семье самый веселый старомодный семейный праздник Рождества из всех. какие были, есть и будут.
    Ну и ну! В это трудно поверить, пока вы не увидите все собственными глазами. 25 000 лампочек на крыше дома Грисуолдов. Взрывающийся индюк на столе… Вот это Рождество!



    Снималось в: США/Warner Bros. Pictures
    Время просмотра: 01:37:11
    Перевод текста:Профессиональный(многоголосый, закадровый), Профессиональный(полное дублирование),
    Профессиональный(двухголосый, закадровый), Авторский(одноголосый, закадровый)


    Файл
    Качество фильма:BDRip 720p
    Тип видео: MKV
    Информация о видео: MPEG4/AVC, 6251 Кбит/сек, 1280х724 (16:9), 23.976 кадра/сек
    Информация о звуке 1: AC3, 2 канала, 192 Кбит/сек |Русский | MVO
    Информация о звуке 2: AC3, 2 канала, 192 Кбит/сек |Русский | D | Варус-Видео
    Информация о звуке 3: AC3, 2 канала, 192 Кбит/сек |Русский | А. Карповский
    Информация о звуке 4: AC3, 2 канала, 192 Кбит/сек |Украинский | MVO | Канал - К1
    Информация о звуке 5: AC3, 2 канала, 192 Кбит/сек |Украинский | P2 | Студія 1+1
    Информация о звуке 6: AC3, 2 канала, 192 Кбит/сек |Украинский | MVO | Студія ТВ+
    Информация о звуке 7: AC3, 2 канала, 192 Кбит/сек |Английский
    Информация о звуке 8: AC3, 2 канала, 192 Кбит/сек |Комментарии
    Субтитры: Английские (Full, SDH)
    Навигация по главам: Есть

    Доп. информация:
    За украинские дорожки спасибо

    MediaInfo:
    Общее
    Уникальный идентификатор : 203514099761009669528702863892735844865 (0x991B63CF6741F629A6BF5A5FA357E201)
    Полное имя : Christmas Vacation. (1989) BDRip 720p.mkv
    Формат : Matroska
    Версия формата : Version 2
    Размер файла : 5,29 Гбайт
    Продолжительность : 1 ч. 37 м.
    Общий поток : 7788 Кбит/сек
    Название фильма : Christmas Vacation. 1989
    Дата кодирования : UTC 2014-12-28 16:27:08
    Программа кодирования : mkvmerge v5.8.0 (;No Sleep/Pillow;) built on Sep 2 2012 15:37:04
    Библиотека кодирования : libebml v1.2.3 + libmatroska v1.3.0

    Видео
    Идентификатор : 1
    Формат : AVC
    Формат/Информация : Advanced Video Codec
    Профиль формата : High@L4.1
    Параметр CABAC формата : Да
    Параметр ReFrames формата : 5 кадров
    Идентификатор кодека : V_MPEG4/ISO/AVC
    Продолжительность : 1 ч. 37 м.
    Битрейт : 6251 Кбит/сек
    Ширина : 1280 пикселей
    Высота : 724 пикселя
    Соотношение сторон : 16:9
    Режим частоты кадров : Постоянный
    Частота кадров : 23,976 кадра/сек
    Цветовое пространство : YUV
    Субдискретизация насыщенности : 4:2:0
    Битовая глубина : 8 бит
    Тип развёртки : Прогрессивная
    Бит/(Пиксели*Кадры) : 0.281
    Размер потока : 4,14 Гбайт (78%)
    Заголовок : CtrlHD
    Библиотека кодирования : x264 core 76 r1271M 496d79d
    Настройки программы : cabac=1/ref=5/deblock=1:-3:-3/analyse=0x3:0x133/me=tesa/subme=10/psy=1/psy_rd=1.0:0.0/mixed_ref=1/me_range=24/chroma_me=1/trellis=2/8x8dct=1/cqm=0/deadzone=6,6/chroma_qp_offset=-2/threads=12/nr=0/decimate=0/mbaff=0/bframes=5/b_pyramid=0/b_adapt=2/b_bias=0/direct=3/wpredb=1/keyint=250/keyint_min=25/scenecut=40/rc_lookahead=60/rc=2pass/mbtree=1/bitrate=6251/ratetol=1.0/qcomp=0.80/qpmin=10/qpmax=51/qpstep=4/cplxblur=20.0/qblur=0.5/ip_ratio=1.10/aq=2:1.00
    Язык : English
    Default : Да
    Forced : Нет

    Аудио #1
    Идентификатор : 2
    Формат : AC-3
    Формат/Информация : Audio Coding 3
    Расширение режима : CM (complete main)
    Параметр Endianness формата : Big
    Идентификатор кодека : A_AC3
    Продолжительность : 1 ч. 37 м.
    Вид битрейта : Постоянный
    Битрейт : 192 Кбит/сек
    Каналы : 2 канала
    Расположение каналов : Front: L R
    Частота : 48,0 КГц
    Битовая глубина : 16 бит
    Метод сжатия : С потерями
    Размер потока : 133 Мбайт (2%)
    Заголовок : MVO
    Язык : Russian
    Default : Да
    Forced : Нет

    Аудио #2
    Идентификатор : 3
    Формат : AC-3
    Формат/Информация : Audio Coding 3
    Расширение режима : CM (complete main)
    Параметр Endianness формата : Big
    Идентификатор кодека : A_AC3
    Продолжительность : 1 ч. 37 м.
    Вид битрейта : Постоянный
    Битрейт : 192 Кбит/сек
    Каналы : 2 канала
    Расположение каналов : Front: L R
    Частота : 48,0 КГц
    Битовая глубина : 16 бит
    Метод сжатия : С потерями
    Размер потока : 133 Мбайт (2%)
    Заголовок : D | Варус - Видео
    Язык : Russian
    Default : Нет
    Forced : Нет

    Аудио #3
    Идентификатор : 4
    Формат : AC-3
    Формат/Информация : Audio Coding 3
    Расширение режима : CM (complete main)
    Параметр Endianness формата : Big
    Идентификатор кодека : A_AC3
    Продолжительность : 1 ч. 37 м.
    Вид битрейта : Постоянный
    Битрейт : 192 Кбит/сек
    Каналы : 2 канала
    Расположение каналов : Front: L R
    Частота : 48,0 КГц
    Битовая глубина : 16 бит
    Метод сжатия : С потерями
    Размер потока : 133 Мбайт (2%)
    Заголовок : A | А.Карповский
    Язык : Russian
    Default : Нет
    Forced : Нет

    Аудио #4
    Идентификатор : 5
    Формат : AC-3
    Формат/Информация : Audio Coding 3
    Расширение режима : CM (complete main)
    Параметр Endianness формата : Big
    Идентификатор кодека : A_AC3
    Продолжительность : 1 ч. 37 м.
    Вид битрейта : Постоянный
    Битрейт : 192 Кбит/сек
    Каналы : 2 канала
    Расположение каналов : Front: L R
    Частота : 48,0 КГц
    Битовая глубина : 16 бит
    Метод сжатия : С потерями
    Размер потока : 133 Мбайт (2%)
    Заголовок : MVO | Канал - К1
    Язык : Ukrainian
    Default : Нет
    Forced : Нет

    Аудио #5
    Идентификатор : 6
    Формат : AC-3
    Формат/Информация : Audio Coding 3
    Расширение режима : CM (complete main)
    Параметр Endianness формата : Big
    Идентификатор кодека : A_AC3
    Продолжительность : 1 ч. 37 м.
    Вид битрейта : Постоянный
    Битрейт : 192 Кбит/сек
    Каналы : 2 канала
    Расположение каналов : Front: L R
    Частота : 48,0 КГц
    Битовая глубина : 16 бит
    Метод сжатия : С потерями
    Задержка видео : 266 мс.
    Размер потока : 133 Мбайт (2%)
    Заголовок : P2 | Студія 1+1
    Язык : Ukrainian
    Default : Нет
    Forced : Нет

    Аудио #6
    Идентификатор : 7
    Формат : AC-3
    Формат/Информация : Audio Coding 3
    Расширение режима : CM (complete main)
    Параметр Endianness формата : Big
    Идентификатор кодека : A_AC3
    Продолжительность : 1 ч. 37 м.
    Вид битрейта : Постоянный
    Битрейт : 192 Кбит/сек
    Каналы : 2 канала
    Расположение каналов : Front: L R
    Частота : 48,0 КГц
    Битовая глубина : 16 бит
    Метод сжатия : С потерями
    Задержка видео : 266 мс.
    Размер потока : 133 Мбайт (2%)
    Заголовок : MVO | Студія ТВ+
    Язык : Ukrainian
    Default : Нет
    Forced : Нет

    Аудио #7
    Идентификатор : 8
    Формат : AC-3
    Формат/Информация : Audio Coding 3
    Профиль формата : Dolby Digital
    Расширение режима : CM (complete main)
    Параметр Endianness формата : Big
    Идентификатор кодека : A_AC3
    Продолжительность : 1 ч. 37 м.
    Вид битрейта : Постоянный
    Битрейт : 192 Кбит/сек
    Каналы : 2 канала
    Расположение каналов : Front: L R
    Частота : 48,0 КГц
    Битовая глубина : 16 бит
    Метод сжатия : С потерями
    Размер потока : 133 Мбайт (2%)
    Заголовок : Original
    Язык : English
    Default : Нет
    Forced : Нет

    Аудио #8
    Идентификатор : 9
    Формат : AC-3
    Формат/Информация : Audio Coding 3
    Профиль формата : Dolby Digital
    Расширение режима : CM (complete main)
    Параметр Endianness формата : Big
    Идентификатор кодека : A_AC3
    Продолжительность : 1 ч. 37 м.
    Вид битрейта : Постоянный
    Битрейт : 192 Кбит/сек
    Каналы : 2 канала
    Расположение каналов : Front: L R
    Частота : 48,0 КГц
    Битовая глубина : 16 бит
    Метод сжатия : С потерями
    Размер потока : 133 Мбайт (2%)
    Заголовок : Commentary
    Язык : English
    Default : Нет
    Forced : Нет

    Текст #1
    Идентификатор : 10
    Формат : UTF-8
    Идентификатор кодека : S_TEXT/UTF8
    Идентификатор кодека/Информация : UTF-8 Plain Text
    Заголовок : Full
    Язык : English
    Default : Нет
    Forced : Нет

    Текст #2
    Идентификатор : 11
    Формат : UTF-8
    Идентификатор кодека : S_TEXT/UTF8
    Идентификатор кодека/Информация : UTF-8 Plain Text
    Заголовок : SDH
    Язык : English
    Default : Нет
    Forced : Нет

    Меню
    00:00:00.000 : en:00:00:00.000
    00:02:41.661 : en:00:02:41.661
    00:07:03.298 : en:00:07:03.298
    00:10:53.403 : en:00:10:53.403
    00:12:43.930 : en:00:12:43.930
    00:14:57.814 : en:00:14:57.814
    00:17:33.970 : en:00:17:33.970
    00:19:34.173 : en:00:19:34.173
    00:29:47.744 : en:00:29:47.744
    00:35:45.226 : en:00:35:45.226
    00:41:39.414 : en:00:41:39.414
    00:44:43.556 : en:00:44:43.556
    00:47:26.052 : en:00:47:26.052
    00:48:38.666 : en:00:48:38.666
    00:51:30.879 : en:00:51:30.879
    00:57:31.239 : en:00:57:31.239
    00:59:45.832 : en:00:59:45.832
    01:01:44.618 : en:01:01:44.618
    01:04:18.772 : en:01:04:18.772
    01:07:10.860 : en:01:07:10.860
    01:10:24.929 : en:01:10:24.929
    01:12:01.484 : en:01:12:01.484
    01:16:31.170 : en:01:16:31.170
    01:18:40.925 : en:01:18:40.925
    01:22:34.241 : en:01:22:34.241
    01:25:13.817 : en:01:25:13.817
    01:28:40.732 : en:01:28:40.732
    01:31:21.893 : en:01:31:21.893
    01:33:52.961 : en:01:33:52.961



    Релиз подготовил:
    Размер скачиваемого торрента: 5.29 GB (5678439205 Bytes)

    Рождественские каникулы/Christmas Vacation (1989) BDRip 720p | D, P, P2, A скачать через торрент бесплатно
    загрузка...
    Рейтинг →
     (голосов: 1, оценка 4/5, голосовать можно 1 раз )

    Другие торренты по теме:

  • Рождественские каникулы - 90 / Vacanze di Natale 90 (1990) DVDRip от Brazzass
  • Рождественские каникулы 91 / Vacanze di Natale 91 (1991) DVDRip от Brazzass
  • Рождественские каникулы / Christmas Vacation (1989) BDRip от New-Team
  • Рождественские каникулы / Christmas Vacation (1989) BDRip-AVC от Leonardo and Scarabey скачать через торрент бесплатно


    • Комментарии (0):

      Информация

      Информация

        Посетители, находящиеся в группе Гости, не могут оставлять комментарии в данной новости.

        ↓ Меню



        ↓ Опрос

        А Вы добавили сайт в закладки?
        Да
        Не


        Top 10 за месяц (Фильмы)