.
Авторизация | Регистрация
Хочешь лучшие торренты? Добавь свой email!
Добавить
» » Моя Госпожа / My Mistress (2014) DVB от MediaClub | P скачать торрент бесплатно




    Моя Госпожа / My Mistress (2014) DVB от MediaClub | P скачать торрент бесплатно

    Опубликовал: Админ | Дата: 27-02-2015, 11:10 | Просмотров: 141


    Детально о кино
    Русское название:Моя Госпожа
    Русское название в мировом прокате:My Mistress
    Создали в:2014
    Категория жанра:Драма, мелодрама
    Главный режиссер:Стивен Лэнс
    Актеры:Эммануэль Беар, Харрисон Гилбертсон, Рэйчел Блейк, Сократис Отто, Хью Паркер, Леа Пурселл, Малкольм Кеннард, Робин Мур, Ной Фонтейн, Монетт Ли
    Сюжет фильма:
    Красивые и невинные отношения, завязавшиеся между романтичным подростком и француженкой, склонной к садомазохизму, вскоре становятся очень опасными…

    Снималось в:Австралия
    Киностудия:Mini Studios
    Время просмотра:01:39:58
    Перевод текста:Профессиональный многоголосый
    Файл
    Качество фильма:DVB
    Информация о видео:MPEG-2, 2276 Кбит/с, 720x576@1024x576
    Информация о звуке:Русский (АС3, 6 ch, 384 Кбит/с)/(MP2, 2 ch, 192 Кбит/с)
    Семпл
    Скриншоты для ознакомления

    MI
    Общее
    Идентификатор : 1 (0x1)
    Полное имя : Moja.Gospozha.2014.DVB.MediaClub.ts
    Формат : MPEG-TS
    Размер файла : 2,10 Гбайт
    Продолжительность : 1 ч. 39 м.
    Режим общего битрейта : Переменный
    Общий поток : 3007 Кбит/сек
    Видео
    Идентификатор : 322 (0x142)
    Идентификатор меню : 10103 (0x2777)
    Формат : MPEG Video
    Версия формата : Version 2
    Профиль формата : Main@Main
    Параметр BVOP формата : Да
    Параметр матрицы формата : Выборочная
    Параметр GOP формата : Variable
    Идентификатор кодека : 2
    Продолжительность : 1 ч. 39 м.
    Вид битрейта : Переменный
    Битрейт : 2276 Кбит/сек
    Максимальный битрейт : 15,0 Мбит/сек
    Ширина : 720 пикселей
    Высота : 576 пикселей
    Соотношение сторон : 16:9
    Частота кадров : 25,000 кадров/сек
    Стандарт вещания : PAL
    Цветовое пространство : YUV
    Субдискретизация насыщенности : 4:2:0
    Битовая глубина : 8 бит
    Тип развёртки : Чересстрочная
    Порядок развёртки : Верхнее поле первое
    Метод сжатия : С потерями
    Бит/(Пиксели*Кадры) : 0.220
    Размер потока : 1,59 Гбайт (76%)
    Аудио #1
    Идентификатор : 405 (0x195)
    Идентификатор меню : 10103 (0x2777)
    Формат : MPEG Audio
    Версия формата : Version 1
    Профиль формата : Layer 2
    Идентификатор кодека : 4
    Продолжительность : 1 ч. 39 м.
    Вид битрейта : Постоянный
    Битрейт : 192 Кбит/сек
    Каналы : 2 канала
    Частота : 48,0 КГц
    Метод сжатия : С потерями
    Задержка видео : -103 мс.
    Размер потока : 137 Мбайт (6%)
    Язык : Russian
    Язык, дополнительно : Clean effects
    Аудио #2
    Идентификатор : 435 (0x1B3)
    Идентификатор меню : 10103 (0x2777)
    Формат : AC-3
    Формат/Информация : Audio Coding 3
    Расширение режима : CM (complete main)
    Параметр Endianness формата : Big
    Идентификатор кодека : 6
    Продолжительность : 1 ч. 39 м.
    Вид битрейта : Постоянный
    Битрейт : 384 Кбит/сек
    Каналы : 6 каналов
    Расположение каналов : Front: L C R, Side: L R, LFE
    Частота : 48,0 КГц
    Битовая глубина : 16 бит
    Метод сжатия : С потерями
    Задержка видео : -143 мс.
    Размер потока : 275 Мбайт (13%)
    Язык : Russian
    Меню
    Идентификатор : 102 (0x66)
    Идентификатор меню : 10103 (0x2777)
    Продолжительность : 1 ч. 39 м.
    Список : 322 (0x142) (MPEG Video)/405 (0x195) (MPEG Audio, Russian)/435 (0x1B3) (AC-3, Russian)
    Язык :/Russian/Russian

    Релиз подготовил:
    Залил: poja
    Размер скачиваемого торрента: 2.10 GB (2254718592 Bytes)

    Моя Госпожа/My Mistress (2014) DVB от MediaClub | P торрент скачать бесплатно
    загрузка...
    Рейтинг →
     (голосов: 1, оценка 3/5, голосовать можно 1 раз )

    Другие торренты по теме:

  • Моя девушка убежденная извращенка девственница / Boku no Kanojo ga Majime Sugiru Shobitch na Ken (2017) HDTVRip | SEKAI PROJECT
  • Генрих Харрер - Семь лет в Тибете. Моя жизнь при дворе Далай-ламы (2016) PDF, FB2, RTF, EPUB, HTML, TXT, MOBI
  • Я люблю мою младшую сестренку / Моя сестра, моя любовь / My Sister, My Love / Boku wa imouto ni koi wo suru (2007) DVDRip-AVC | L2
  • Моя пролистанная книга / Моя последняя страница / My Back Page (2011) DVDRip
  • Прости меня, моя любовь / Пробач мені, моя любов (2012) SATRip
  • Боря Бакинский - Любовь моя. Не моя. Шесть сладких лет
  • Моя Русалка, моя Лореляй (2015)
  • Стаффорд - Моя Россия (2012) МР3


    • Комментарии (0):

      Информация

      Информация

        Посетители, находящиеся в группе Гости, не могут оставлять комментарии в данной новости.

        ↓ Меню



        ↓ Опрос

        А Вы добавили сайт в закладки?
        Да
        Не


        Top 10 за месяц (Фильмы)