.
Авторизация | Регистрация
Хочешь лучшие торренты? Добавь свой email!
Добавить
» » Крах / The Fall (2014) HDTVRip | Jaskier скачать через торрент бесплатно




    Крах / The Fall (2014) HDTVRip | Jaskier скачать через торрент бесплатно

    Опубликовал: Админ | Дата: 27-02-2015, 11:10 | Просмотров: 97


    Детально о кино
    Русское название:Крах
    Русское название в мировом прокате:The Fall
    Создали в:2014
    Категория жанра:триллер, драма
    Главный режиссер:Аллан Кабитт, Якоб Вербрюгген
    Актеры:Джиллиан Андерсон, Джейми Дорнан, Брона Во, Джон Линч, Ниам МакГрэйди, Стюарт Грэхэм, Герард МакКарти, Йен МакЭлхинни, Юджин О’Харе, Лаура Доннелли
    Сюжет фильма:
    Действие разворачивается в городе Белфаст в Северной Ирландии. Местное население здесь терроризирует серийный убийца, и городская полиция никак не может вычислить этого маньяка. Детектив Стелла Гибсон берется разобраться в этом загадочном мрачном деле.
    Официальный сайт
    Снималось в:Великобритания
    Киностудия:Fables Limited, Artists Studio, BBC Northern Ireland
    Время просмотра:~00:59:00 серия
    Перевод текста:Любительский (многоголосый закадровый) Jaskier
    Файл
    Кодек для видео:XviD/MP3
    Качество фильма:HDTVRip
    Информация о видео:MPEG4, XviD, 720x400 (16:9), 25.000 fps, 1 500 Kbps (0.208 bit/pixel)
    Информация о звуке:MP3, 44.1 KHz, 2 ch, 128 Kbps, CBR
    Семпл
    Скриншоты для ознакомления
    Screens
    MediaInfo
    General
    Complete name : /Крах.S02/KPaX.S02E01.Jaskier.HDTVRip.avi
    Format : AVI
    Format/Info : Audio Video Interleave
    File size : 693 MiB
    Duration : 59mn 12s
    Overall bit rate : 1 638 Kbps
    Writing application : VirtualDubMod 1.5.10.2 (build 2540/release)
    Writing library : VirtualDubMod build 2540/release
    Video
    ID : 0
    Format : MPEG-4 Visual
    Format profile : Advanced Simple@L5
    Format settings, BVOP : 2
    Format settings, QPel : No
    Format settings, GMC : No warppoints
    Format settings, Matrix : Default (MPEG)
    Codec ID : XVID
    Codec ID/Hint : XviD
    Duration : 59mn 12s
    Bit rate : 1 500 Kbps
    Width : 720 pixels
    Height : 400 pixels
    Display aspect ratio : 16:9
    Frame rate : 25.000 fps
    Color space : YUV
    Chroma subsampling : 4:2:0
    Bit depth : 8 bits
    Scan type : Progressive
    Compression mode : Lossy
    Bits/(Pixel*Frame) : 0.208
    Stream size : 635 MiB (92%)
    Writing library : XviD 1.2.1 (UTC 2008-12-04)
    Audio
    ID : 1
    Format : MPEG Audio
    Format version : Version 1
    Format profile : Layer 3
    Codec ID : 55
    Codec ID/Hint : MP3
    Duration : 59mn 12s
    Bit rate mode : Constant
    Bit rate : 128 Kbps
    Channel(s) : 2 channels
    Sampling rate : 44.1 KHz
    Compression mode : Lossy
    Stream size : 54.2 MiB (8%)
    Alignment : Split accross interleaves
    Interleave, duration : 40 ms (1.00 video frame)
    Interleave, preload duration : 500 ms

    Размер скачиваемого торрента: 2.77 GB (2977112064 Bytes)

    Крах/The Fall (2014) HDTVRip | Jaskier скачать через торрент бесплатно
    загрузка...
    Рейтинг →
     (голосов: 1, оценка 3/5, голосовать можно 1 раз )

    Другие торренты по теме:

  • Heartwork - Всемирный Крах (2012) MP3
  • Крах / The Fall (2013) BDRip | P
  • Конец света / Крах / Collapse / Collapse of the Living Dead (2010) BDRip-AVC от MediaClub
  • Крах инженера Гарина (4 серии из 4)
  • Джейсон Гудвин - Величие и крах Османской империи. Властители бескрайних горизонтов (2012) FB2
  • Гении и злодеи. Рембрандт ван Рейн. Крах гения (2014) IPTVRip от Pshichko66 скачать через торрент бесплатно
  • Крах / The Fall
  • Крах / Падение / The Fall скачать через торрент бесплатно


    • Комментарии (0):

      Информация

      Информация

        Посетители, находящиеся в группе Гости, не могут оставлять комментарии в данной новости.

        ↓ Меню



        ↓ Опрос

        А Вы добавили сайт в закладки?
        Да
        Не


        Top 10 за месяц (Фильмы)