.
Авторизация | Регистрация
Хочешь лучшие торренты? Добавь свой email!
Добавить




Тальянка (2014) SATRip скачать через торрент бесплатно

Опубликовал: Админ | Дата: 27-02-2015, 11:10 | Просмотров: 173


Детально о кино
Русское название:Тальянка
Создали в:2014
Категория жанра:драма, мелодрама
Главный режиссер:Евгений Звездаков
Актеры:Андрей Мерзликин, Йоанна Моро, Екатерина Гусева, Раниеро Монако Ди Лапио, Игорь Скляр, Даниил Спиваковский, Александр Коршунов, Павел Деревянко, Вета Кондратьева, Савва Гусев, Николай Иванов, Олег Федоров (III), Елена Руфанова, Ольга Медынич, Андрей Зибров, Иван Паршин, Николай Спиридонов, Валерий Малюшин, Юрий Ицков, Леонид Алимов, Андрей Дежонов, Владимир Щербаков, Юрий Цурило, Екатерина Тарасова, Владимир Капустин, Людмила Бояринова, Татьяна Мишина, Любовь Макеева, Алексей Одинг, Сергей Мардарь, Даниил Кокин, Владислав Резник, Роман Притула, Виталий Коваленко, Сергей Галич, Игорь Головин, Николай Данилов, Ольга Онищенко, Людмила Моторная, Нина Петровская, Андрей Полищук, Мария Поликарпова, Надежда Кулакова, Александр Клемантович, Александр Машанов, Виталий Куликов, Алексей Байдаков, Джанни Франко
Сюжет фильма:
В партизанском отряде в Италии полюбили друг друга русский летчик Степан и танцовщица Джульетта. Жена и сын Степана погибли в немецкой оккупации, и Степан открылся новому чувству. После войны с дочерью Софи они приезжают на родину Степана, в родную деревню. И узнают, что семья Степана выжила, и теперь у него две жены, и двое детей. Джульетта не хочет строить свое счастье на несчастье других, и собирается вернуться домой. Но поскольку Софи теперь гражданка СССР, Джульетта может уехать только одна...

Снималось в:Россия
Киностудия:Всемирные русские студии
Время просмотра:~ 00:50:00 серия
Перевод текста:Не требуется
Файл
Кодек для видео:XviD/MP3
Качество фильма:SATRip
Информация о видео:MPEG4, XviD, 720x400 (16:9), 25.000 fps, 1 800 Kbps (0.250 bit/pixel)
Информация о звуке:MP3, 48.0 KHz, 2 ch, 128 Kbps, CBR
Скриншоты для ознакомления
Screenshots
mediainfo
General
Complete name : /Taljanka/Taljanka.01.SATRip.avi
Format : AVI
Format/Info : Audio Video Interleave
File size : 698 MiB
Duration : 50mn 23s
Overall bit rate : 1 937 Kbps
Writing application : VirtualDubMod 1.5.10.3 | www.virtualdub-fr.org || (build 2550/release)
Writing library : VirtualDubMod build 2550/release
Video
ID : 0
Format : MPEG-4 Visual
Format profile : Advanced Simple@L5
Format settings, BVOP : 2
Format settings, QPel : No
Format settings, GMC : No warppoints
Format settings, Matrix : Default (H.263)
Codec ID : XVID
Codec ID/Hint : XviD
Duration : 50mn 23s
Bit rate : 1 800 Kbps
Width : 720 pixels
Height : 400 pixels
Display aspect ratio : 16:9
Frame rate : 25.000 fps
Color space : YUV
Chroma subsampling : 4:2:0
Bit depth : 8 bits
Scan type : Progressive
Compression mode : Lossy
Bits/(Pixel*Frame) : 0.250
Stream size : 649 MiB (93%)
Writing library : XviD 1.2.1 (UTC 2008-12-04)
Audio
ID : 1
Format : MPEG Audio
Format version : Version 1
Format profile : Layer 3
Mode : Joint stereo
Mode extension : MS Stereo
Codec ID : 55
Codec ID/Hint : MP3
Duration : 50mn 23s
Bit rate mode : Constant
Bit rate : 128 Kbps
Channel(s) : 2 channels
Sampling rate : 48.0 KHz
Compression mode : Lossy
Stream size : 46.1 MiB (7%)
Alignment : Aligned on interleaves
Interleave, duration : 40 ms (1.00 video frame)
Interleave, preload duration : 504 ms
Writing library : LAME3.99r
Encoding settings : -m j -V 4 -q 2 -lowpass 17 -b 128

Размер скачиваемого торрента: 5.11 GB (5489219584 Bytes)

Тальянка (2014) SATRip скачать через торрент бесплатно
загрузка...
Рейтинг →
 (голосов: 1, оценка 3/5, голосовать можно 1 раз )

Другие торренты по теме:

  • Тальянка (1-2 серии из скачать через торрент бесплатно
  • Тальянка (2014) HDTVRip-AVC от Files-x
  • Тальянка (2014) HDTV 1080i от MediaClub
  • Тальянка (2014) WEB-DL 720p от Files-x
  • Тальянка (2014) HDTVRip от Files-x


    • Комментарии (0):

      Информация

      Информация

        Посетители, находящиеся в группе Гости, не могут оставлять комментарии в данной новости.

        ↓ Меню



        ↓ Опрос

        А Вы добавили сайт в закладки?
        Да
        Не


        Top 10 за месяц (Фильмы)