.
Авторизация | Регистрация
Хочешь лучшие торренты? Добавь свой email!
Добавить
» » Сверхъестественное / Supernatural (2014) WEB-DLRip-AVC | P | BaibaKo скачать через торрент бесплатно




    Сверхъестественное / Supernatural (2014) WEB-DLRip-AVC | P | BaibaKo скачать через торрент бесплатно

    Опубликовал: Админ | Дата: 27-02-2015, 11:10 | Просмотров: 171




    Русское название:Сверхъестественное
    Русское название в мировом прокате:Supernatural
    Создали в:2014
    Категория жанра:Ужасы, фэнтези, триллер, драма, детектив
    Главный режиссер:Филип Сгриккиа, Джеймс Л. Конуэй, Питер Эллис, Джереми Карвер, Роберт Сингер
    Актеры:Джаред Падалеки, Дженсен Эклс, Джим Бивер, Миша Коллинз, Марк Шеппард, Джеффри Дин Морган, Женевьев Падалеки, Синди Сэмпсон, Саманта Феррис, Митч


    Дин выбирается из чистилища, но не один. Он отправляется прямиком к Сэму, однако воссоединение семьи проходит не совсем так, как ему представлялось. Сэм бросает все ради того, чтобы быть со своим братом, но расстаться с целой жизнью, что он прожил без Дина, оказывается несколько сложнее, чем он ожидал. Дин и Сэм ищут Кевина, которому удалось сбежать из-под надзора Кроули, но все только усложняется, когда Кевин говорит им, чего хочет Кроули. Как братья Винчестеры в очередной раз собираются спасти планету от бессмертных тварей, увидите в 10 сезон любимого сериалае сериала Сверхъестественное.



    Снималось в:США
    Киностудия:Kripke Enterprises, Warner Bros. Television, Wonderland Sound and Vision, Supernatural Films
    Время просмотра:7 х ~ 00:43:00
    Перевод текста:Профессиональный многоголосый


    Файл
    Тип видео:MKV
    Кодек для видео:MPEG-4 AVC
    Качество фильма:WEB-DLRip (AVC)
    Информация о видео:1024x576 ~ 2000 Кбит/с
    Информация о звуке:Русский (АС3, 6 ch, 384 Кбит/c)
    Автор рипа:


    Инфо-файлик

    Общее
    Уникальный идентификатор : 259326425430880222577130380204061791698 (0xC31873EB68FE8E6999225D958BFC95D2)
    Полное имя : D:ВидеоСверхъестественноеSupernatural.s10e01.mkv
    Формат : Matroska
    Версия формата : Version 2
    Размер файла : 714 Мбайт
    Продолжительность : 42 м.
    Общий поток : 2362 Кбит/сек
    Дата кодирования : UTC 2014-10-08 23:17:36
    Программа кодирования : Lavf54.63.104
    Библиотека кодирования : Lavf54.63.104
    Видео
    Идентификатор : 1
    Формат : AVC
    Формат/Информация : Advanced Video Codec
    Профиль формата : Main@L3.1
    Параметр CABAC формата : Да
    Параметр ReFrames формата : 1 кадр
    Идентификатор кодека : V_MPEG4/ISO/AVC
    Продолжительность : 42 м.
    Битрейт : 2000 Кбит/сек
    Ширина : 1024 пикселя
    Высота : 576 пикселей
    Соотношение сторон : 16:9
    Режим частоты кадров : Постоянный
    Частота кадров : 23,976 кадра/сек
    Цветовое пространство : YUV
    Субдискретизация насыщенности : 4:2:0
    Битовая глубина : 8 бит
    Тип развёртки : Прогрессивная
    Бит/(Пиксели*Кадры) : 0.141
    Размер потока : 584 Мбайт (82%)
    Библиотека кодирования : x264 core 129
    Настройки программы : cabac=1/ref=1/deblock=1:0:0/analyse=0x1:0x131/me=dia/subme=2/psy=1/psy_rd=1.00:0.00/mixed_ref=0/me_range=16/chroma_me=1/trellis=0/8x8dct=0/cqm=0/deadzone=21,11/fast_pskip=1/chroma_qp_offset=0/threads=4/lookahead_threads=1/sliced_threads=0/nr=0/decimate=1/interlaced=0/bluray_compat=0/constrained_intra=0/bframes=0/weightp=2/keyint=250/keyint_min=25/scenecut=40/intra_refresh=0/rc_lookahead=40/rc=abr/mbtree=1/bitrate=2000/ratetol=1.0/qcomp=0.60/qpmin=10/qpmax=51/qpstep=4/ip_ratio=1.41/aq=1:1.00
    Default : Да
    Forced : Нет
    Аудио
    Идентификатор : 2
    Формат : AC-3
    Формат/Информация : Audio Coding 3
    Расширение режима : CM (complete main)
    Параметр Endianness формата : Big
    Идентификатор кодека : A_AC3
    Продолжительность : 42 м.
    Вид битрейта : Постоянный
    Битрейт : 384 Кбит/сек
    Каналы : 6 каналов
    Расположение каналов : Front: L C R, Side: L R, LFE
    Частота : 48,0 КГц
    Битовая глубина : 16 бит
    Метод сжатия : С потерями
    Размер потока : 116 Мбайт (16%)
    Default : Да
    Forced : Нет



    Скриншоты для ознакомления




    Размер скачиваемого торрента: 4.89 GB (5247707889 Bytes)

    Сверхъестественное/Supernatural (2014) WEB-DLRip-AVC | P | BaibaKo скачать через торрент бесплатно
    загрузка...
    Рейтинг →
     (голосов: 1, оценка 3/5, голосовать можно 1 раз )

    Другие торренты по теме:

  • Сверхъестественное / Supernatural: The Animation (2011) BDRip | AniFilm
  • Painkiller: Сверхъестественное / Painkiller: Supernatural (2012) PC
  • Сверхъестественное / Supernatural (2010-2011) DVDRip | Рен-ТВ
  • Сверхъестественное / Supernatural (2012) WEB-DLRip | LostFilm
  • Сверхъестественное / Supernatural (2013) HDTVRip | Kerob
  • Сверхъестественное / Supernatural (2013) HDTVRip | DreamRecords скачать через торрент бесплатно
  • Сверхъестественное / Supernatural (2005) HDRip от Youtracker | D | КПК скачать через торрент бесплатно
  • Сверхъестественное / Supernatural (2013) HDTVRip | Sub скачать через торрент бесплатно


    • Комментарии (0):

      Информация

      Информация

        Посетители, находящиеся в группе Гости, не могут оставлять комментарии в данной новости.

        ↓ Меню



        ↓ Опрос

        А Вы добавили сайт в закладки?
        Да
        Не


        Top 10 за месяц (Фильмы)