.
Авторизация | Регистрация
Хочешь лучшие торренты? Добавь свой email!
Добавить
» » Будь моим Валентином / Be My Valentine (2013) SATRip от MediaClub | P скачать через торрент бесплатно




    Будь моим Валентином / Be My Valentine (2013) SATRip от MediaClub | P скачать через торрент бесплатно

    Опубликовал: Админ | Дата: 27-02-2015, 11:10 | Просмотров: 181


    Детально о кино
    Русское название:Будь моим Валентином
    Русское название в мировом прокате:Be My Valentine
    Создали в:2013
    Категория жанра:Мелодрама
    Главный режиссер:Грэм Кэмпбелл
    Актеры:Уильям Болдуин, Натали Браун, Лиза Берри, Джеймс Томас, Кристиан Мартин, Leah McPherson, Сэди ЛеБланк, Майкл Крэм, Майкл Ксавьер, Сиам Ю
    Сюжет фильма:
    Одинокий отец и пожарный Ден Фаррепл за несколько недель до Дня святого Валентина прибывает тушить пожар в магазин цветов и оказывается сражён, но не огнём, а обаятельной улыбкой его хозяйки Кейт.

    Снималось в:Канада
    Киностудия:Nantucket Productions (I)
    Время просмотра:01:23:07
    Перевод текста:Профессиональный многоголосый
    Файл
    Кодек для видео:XviD
    Качество фильма:SATRip
    Информация о видео:1808 Кбит/с, 720x400, 25.000 кадр/с
    Информация о звуке:Русский (АС3, 2 ch, 192 Кбит/с)
    Семпл
    Скриншоты для ознакомления

    MI
    Общее
    Полное имя : But.moim.Valentinom.2013.SATRip.MediaClub.avi
    Формат : AVI
    Формат/Информация : Audio Video Interleave
    Размер файла : 1,17 Гбайт
    Продолжительность : 1 ч. 23 м.
    Общий поток : 2010 Кбит/сек
    Название фильма : MediaClub
    Программа кодирования : VirtualDubMod 1.5.10.2 (build 2540/release)
    Библиотека кодирования : VirtualDubMod build 2540/release
    Видео
    Идентификатор : 0
    Формат : MPEG-4 Visual
    Профиль формата : Advanced Simple@L5
    Параметр BVOP формата : 2
    Параметр QPel формата : Нет
    Параметр GMC формата : Без точки перехода
    Параметр матрицы формата : Default (MPEG)
    Идентификатор кодека : XVID
    Идентификатор кодека/Подсказка : XviD
    Продолжительность : 1 ч. 23 м.
    Битрейт : 1808 Кбит/сек
    Ширина : 720 пикселей
    Высота : 400 пикселей
    Соотношение сторон : 16:9
    Частота кадров : 25,000 кадров/сек
    Цветовое пространство : YUV
    Субдискретизация насыщенности : 4:2:0
    Битовая глубина : 8 бит
    Тип развёртки : Прогрессивная
    Метод сжатия : С потерями
    Бит/(Пиксели*Кадры) : 0.251
    Размер потока : 1,05 Гбайт (90%)
    Библиотека кодирования : XviD 65
    Аудио
    Идентификатор : 1
    Формат : AC-3
    Формат/Информация : Audio Coding 3
    Расширение режима : CM (complete main)
    Параметр Endianness формата : Big
    Идентификатор кодека : 2000
    Продолжительность : 1 ч. 23 м.
    Вид битрейта : Постоянный
    Битрейт : 192 Кбит/сек
    Каналы : 2 канала
    Расположение каналов : Front: L R
    Частота : 48,0 КГц
    Битовая глубина : 16 бит
    Метод сжатия : С потерями
    Размер потока : 114 Мбайт (10%)
    Выравнивание : Разделение по промежуткам
    Продолжительность промежутка : 40 мс. (1,00 видеокадр)
    Время предзагрузки промежутка : 500 мс.

    Релиз подготовил:
    Залил: poja
    Размер скачиваемого торрента: 1.17 GB (1252741120 Bytes)

    Будь моим Валентином/Be My Valentine (2013) SATRip от MediaClub | P скачать через торрент бесплатно
    загрузка...
    Рейтинг →
     (голосов: 1, оценка 5/5, голосовать можно 1 раз )

    Другие торренты по теме:

  • Будь моим парнем на пять минут / Nick and Norahs Infinite Playlist (2008) BDRip 1080p от NoLimits-Team
  • Будь моим парнем на пять минут / Nick and Norahs Infinite Playlist (2008) HDRip от Scarabey | D


    • Комментарии (0):

      Информация

      Информация

        Посетители, находящиеся в группе Гости, не могут оставлять комментарии в данной новости.

        ↓ Меню



        ↓ Опрос

        А Вы добавили сайт в закладки?
        Да
        Не


        Top 10 за месяц (Фильмы)