.
Авторизация | Регистрация
Хочешь лучшие торренты? Добавь свой email!
Добавить
» » Шугарлендский экспресс / The Sugarland Express (1974) BDRip 720p скачать торрент бесплатно




    Шугарлендский экспресс / The Sugarland Express (1974) BDRip 720p скачать торрент бесплатно

    Опубликовал: Админ | Дата: 27-02-2015, 11:10 | Просмотров: 119

    Шугарлендский экспресс/The Sugarland Express (1974) BDRip
    Создали в:1974
    Создали в:USA/Universal Pictures, Zanuck/Brown Productions
    Категория жанра:драма, комедия, криминал, приключения
    Главный режиссер:Стивен Спилберг
    Актеры:Голди Хоун, Бен Джонсон, Майкл Сакс, Уильям Этертон, Грегори Уэлкотт, Стив Кэнэли, Луиз Лэтэм, Харрисон Занук, А.Л. Кэмп, Джесси Ли Фултон
    Сюжет фильма:Шугарлэнд Экспресс основан на подлинной истории Лу Джин Поплин, которая похитила заключенного из техасской тюрьмы и вовлекла полицию в безумную погоню по всей территории штата, пытаясь спасти своего сына от грозящего ему усыновления приемными родителями...
    Перевод текста:профессиональный (многоголосый закадровый)
    Вид субтитров:вшитые отключаемые
    Язык субтитров:русские (Full, Forsed), английские (Full, SHD)

    Время просмотра:01:49:52
    Качество фильма:BDRip (720p)
    Информация о видео:MPEG-4 AVC/H.264, 1280 x 544 (2,35:1), 8 518 kbps, 23.976 fps, 0.510 b/px
    Информация о звуке # 1:DTS, 2 ch, 447 kbps, 48 000 Hz дублированный (Blu-Ray CEE)
    Информация о звуке # 2:DTS, 2 ch, 1509 kbps, 48 000 Hz оригинальный
    MediaInfo
    Общее
    Уникальный идентификатор : 204300631259418166178664687215241095288 (0x99B2DECE99B7C0A6B4EB5F3440786878)
    Полное имя : E:Video1974 Шугарлендский экспресс BDRip 720p.mkv
    Формат : Matroska
    Версия формата : Version 4/Version 2
    Размер файла : 8,20 Гбайт
    Продолжительность : 1 ч. 49 м.
    Общий поток : 10,7 Мбит/сек
    Название фильма : Шугарлендский экспресс/The Sugarland Express (1974) BDRip 720p
    Дата кодирования : UTC 2014-11-24 09:35:24
    Программа кодирования : mkvmerge v7.2.0 (;On Every Street;) 32bit built on Sep 13 2014 15:42:11
    Библиотека кодирования : libebml v1.3.0 + libmatroska v1.4.1
    DURATION : 01:47:20.558000000
    NUMBER_OF_FRAMES : 1476
    NUMBER_OF_BYTES : 50186
    _STATISTICS_WRITING_APP : mkvmerge v7.2.0 (;On Every Street;) 32bit built on Sep 13 2014 15:42:11
    _STATISTICS_WRITING_DATE_UTC : 2014-11-24 09:35:24
    _STATISTICS_TAGS : BPS DURATION NUMBER_OF_FRAMES NUMBER_OF_BYTES
    Видео
    Идентификатор : 1
    Формат : AVC
    Формат/Информация : Advanced Video Codec
    Профиль формата : High@L4.1
    Параметр CABAC формата : Да
    Параметр ReFrames формата : 12 кадров
    Идентификатор кодека : V_MPEG4/ISO/AVC
    Продолжительность : 1 ч. 49 м.
    Битрейт : 8518 Кбит/сек
    Ширина : 1280 пикселей
    Высота : 544 пикселя
    Соотношение сторон : 2,35:1
    Режим частоты кадров : Постоянный
    Частота кадров : 23,976 кадра/сек
    Цветовое пространство : YUV
    Субдискретизация насыщенности : 4:2:0
    Битовая глубина : 8 бит
    Тип развёртки : Прогрессивная
    Бит/(Пиксели*Кадры) : 0.510
    Размер потока : 6,54 Гбайт (80%)
    Заголовок : 1974 Шугарлендский экспресс/The Sugarland Express BDRip 720p
    Библиотека кодирования : x264 core 142 r2431+42 c69a006 tMod 8-bit@all X86_64
    Настройки программы : cabac=1/ref=12/deblock=1:-3:-3/analyse=0x3:0x133/me=tesa/subme=11/psy=1/fade_compensate=0.00/psy_rd=0.90:0.00/mixed_ref=1/me_range=24/chroma_me=1/trellis=2/8x8dct=1/cqm=0/deadzone=21,11/fast_pskip=0/chroma_qp_offset=-2/threads=6/lookahead_threads=1/sliced_threads=0/nr=0/decimate=0/interlaced=0/bluray_compat=0/constrained_intra=0/fgo=0/bframes=8/b_pyramid=2/b_adapt=2/b_bias=0/direct=3/weightb=1/open_gop=0/weightp=2/keyint=250/keyint_min=23/scenecut=40/intra_refresh=0/rc=crf/mbtree=0/crf=18.0000/qcomp=0.60/qpmin=0:0:0/qpmax=69:69:69/qpstep=4/ip_ratio=1.20/pb_ratio=1.10/aq=4:0.85/aq-sensitivity=10.00/aq-factor=1.00:1.00:1.00/aq2=0/aq3=0
    Язык : English
    Default : Да
    Forced : Нет
    DURATION : 01:49:52.378000000
    NUMBER_OF_FRAMES : 158059
    NUMBER_OF_BYTES : 7191889170
    _STATISTICS_WRITING_APP : mkvmerge v7.2.0 (;On Every Street;) 32bit built on Sep 13 2014 15:42:11
    _STATISTICS_WRITING_DATE_UTC : 2014-11-24 09:35:24
    _STATISTICS_TAGS : BPS DURATION NUMBER_OF_FRAMES NUMBER_OF_BYTES
    Аудио #1
    Идентификатор : 2
    Формат : DTS
    Формат/Информация : Digital Theater Systems
    Режим : 16
    Параметр Endianness формата : Big
    Идентификатор кодека : A_DTS
    Продолжительность : 1 ч. 49 м.
    Вид битрейта : Постоянный
    Битрейт : 447 Кбит/сек
    Каналы : 2 канала
    Расположение каналов : Front: L R
    Частота : 48,0 КГц
    Битовая глубина : 24 бит
    Метод сжатия : С потерями
    Размер потока : 351 Мбайт (4%)
    Заголовок : Многоголосый закадровый (Blu-Ray CEE)
    Язык : Russian
    Default : Да
    Forced : Нет
    DURATION : 01:49:52.427000000
    NUMBER_OF_FRAMES : 618040
    NUMBER_OF_BYTES : 1243496480
    _STATISTICS_WRITING_APP : mkvmerge v7.2.0 (;On Every Street;) 32bit built on Sep 13 2014 15:42:11
    _STATISTICS_WRITING_DATE_UTC : 2014-11-24 09:35:24
    _STATISTICS_TAGS : BPS DURATION NUMBER_OF_FRAMES NUMBER_OF_BYTES
    Аудио #2
    Идентификатор : 3
    Формат : DTS
    Формат/Информация : Digital Theater Systems
    Режим : 16
    Параметр Endianness формата : Big
    Идентификатор кодека : A_DTS
    Продолжительность : 1 ч. 49 м.
    Вид битрейта : Постоянный
    Битрейт : 1509 Кбит/сек
    Каналы : 2 канала
    Расположение каналов : Front: L R
    Частота : 48,0 КГц
    Битовая глубина : 24 бит
    Метод сжатия : С потерями
    Размер потока : 1,16 Гбайт (14%)
    Заголовок : English
    Язык : English
    Default : Нет
    Forced : Нет
    DURATION : 01:49:52.427000000
    NUMBER_OF_FRAMES : 618040
    NUMBER_OF_BYTES : 368351840
    _STATISTICS_WRITING_APP : mkvmerge v7.2.0 (;On Every Street;) 32bit built on Sep 13 2014 15:42:11
    _STATISTICS_WRITING_DATE_UTC : 2014-11-24 09:35:24
    _STATISTICS_TAGS : BPS DURATION NUMBER_OF_FRAMES NUMBER_OF_BYTES
    Текст #1
    Идентификатор : 4
    Формат : UTF-8
    Идентификатор кодека : S_TEXT/UTF8
    Идентификатор кодека/Информация : UTF-8 Plain Text
    Заголовок : Russian (Full)
    Язык : Russian
    Default : Нет
    Forced : Нет
    Текст #2
    Идентификатор : 5
    Формат : UTF-8
    Идентификатор кодека : S_TEXT/UTF8
    Идентификатор кодека/Информация : UTF-8 Plain Text
    Заголовок : Russian (Forced)
    Язык : Russian
    Default : Да
    Forced : Нет
    Текст #3
    Идентификатор : 6
    Формат : UTF-8
    Идентификатор кодека : S_TEXT/UTF8
    Идентификатор кодека/Информация : UTF-8 Plain Text
    Заголовок : English (Full)
    Язык : English
    Default : Нет
    Forced : Нет
    Текст #4
    Идентификатор : 7
    Формат : UTF-8
    Идентификатор кодека : S_TEXT/UTF8
    Идентификатор кодека/Информация : UTF-8 Plain Text
    Заголовок : English (SDH)
    Язык : English
    Default : Нет
    Forced : Нет
    Меню
    00:00:00.000 : en:1. Pre-Release (Main Titles)
    00:03:07.000 : en:2. Leaving Today
    00:11:52.000 : en:3. Written Warning
    00:15:51.000 : en:4. Never Shot a Man
    00:18:18.000 : en:5. Real Trouble
    00:23:38.000 : en:6. Bad Hombre
    00:26:57.000 : en:7. Gettin; Gas
    00:33:03.000 : en:8. Hold It
    00:42:27.000 : en:9. Drive Thru
    00:49:18.000 : en:10. Racked Up
    00:58:26.000 : en:11. Sweet Talk
    01:07:05.000 : en:12. Reserve Officers
    01:13:18.000 : en:13. We Got ;Em
    01:22:01.000 : en:14. Stopping for Supplies
    01:27:30.000 : en:15. Innocent People
    01:34:37.000 : en:16. This is Goodbye
    01:39:58.000 : en:17. Don;t Stop
    01:47:23.000 : en:18. End Titles

    Скриншоты для ознакомления

    Размер скачиваемого торрента: 8.20 GB (8806717428 Bytes)

    Шугарлендский экспресс/The Sugarland Express (1974) BDRip 720p торрент скачать бесплатно
    загрузка...
    Рейтинг →
     (голосов: 1, оценка 5/5, голосовать можно 1 раз )

    Другие торренты по теме:

  • Шугарлендский экспресс / The Sugarland Express (1974) WEB-DL 720p от HDClub
  • Шугарлендский Экспресс / The Sugarland Express (1974) WEB-DLRip | P
  • Шугарлендский экспресс / The Sugarland Express скачать через торрент бесплатно
  • Шугарлендский экспресс / The Sugarland express (1974) BDRip 1080p by msltel | P скачать через торрент бесплатно
  • Шугарлендский экспресс / The Sugarland express (1974) Blu-Ray Remux 1080p от 0ptimus скачать через торрент бесплатно
  • Шугарлендский экспресс / The Sugarland express / 1974 / ПМ, СТ / Blu-Ray CEE (1080p)


    • Комментарии (0):

      Информация

      Информация

        Посетители, находящиеся в группе Гости, не могут оставлять комментарии в данной новости.

        ↓ Меню



        ↓ Опрос

        А Вы добавили сайт в закладки?
        Да
        Не


        Top 10 за месяц (Фильмы)