.
Авторизация | Регистрация
Хочешь лучшие торренты? Добавь свой email!
Добавить
» » Люси / Lucy (2014) НDRip от ExKinoRay | Лицензия скачать через торрент бесплатно




    Люси / Lucy (2014) НDRip от ExKinoRay | Лицензия скачать через торрент бесплатно

    Опубликовал: Админ | Дата: 27-02-2015, 11:10 | Просмотров: 213


    Детально о кино
    Русское название:Люси
    Русское название в мировом прокате:Lucy
    Выпущенно:Франция/Canal+ fr, Cin?, EuropaCorp
    Категория жанра:боевик, фантастика
    Создали в:2014
    Перевод текста:Профессиональный дублированный /Лицензия BluRay CEE/
    Субтитры:Русские (форс. + полные), Английские (форс. + полные) |внешние *.srt|
    Главный режиссер:Люк Бессон/Luc Besson
    Актеры:Скарлетт Йоханссон/Scarlett Johansson (Lucy), Морган Фриман/Morgan Freeman (Professor Norman), Чхве Мин Сик/Choi Min Sik (Mr. Jang), Амр Вакед/Amr Waked (Pierre Del Rio), Джулиан Райнд-Татт/Julian Rhind-Tutt (The Limey), Йохан Филип Асбек/Johan Philip Asbaek (Richard), Анали Типтон/Analeigh Tipton (Caroline), Николас Фонгфет/Nicolas Phongpheth (Jii), Ян Оливер Шрёдер/Jan Oliver Schroeder (German Mule), Лука Анджелетти/Luca Angeletti (Italian Mule), Луи Брабант/Lo?c Brabant (Professor), Пьер Граммон/Pierre Grammont (Professor)
    Сюжет:Еще вчера она была просто сексапильной блондинкой, а сегодня - самое опасное и смертоносное создание на планете со сверхъестественными способностями и интеллектом. То, что совсем недавно лучшие умы мира считали фантастической теорией, для нее стало реальностью. И теперь из добычи она превратится в охотницу.
    Ее зовут Люси...

    Файл
    Качество фильма:HDRip
    Время просмотра:01:29:20
    Тип видео:AVI
    Информация о видео кодек:XviD
    Информация о звуке кодек:МР3
    Информация о видео:656x272 (2,40:1), 23,976 fps, XviD 73 ~1031 kbps avg, 0.241 bit/pixel
    Информация о звуке:48.0 kHz, MPEG Audio 3, 2 ch, 128 Kbps
    Семпл
    MI:
    Общее
    Полное имя : D:ВидеоLucy.2014.HDRip by Vovan366(ExKinoRay)Lucy.2014.HDRip by Vovan366(ExKinoRay).avi
    Формат : AVI
    Формат/Информация : Audio Video Interleave
    Размер файла : 744 Мбайт
    Продолжительность : 1 ч. 29 м.
    Режим общего битрейта : Переменный
    Общий поток : 1165 Кбит/сек
    Программа кодирования : VirtualDubMod 1.5.10.3 | www.virtualdub-fr.org || (build 2550/release)
    Библиотека кодирования : VirtualDubMod build 2550/release
    Видео
    Идентификатор : 0
    Формат : MPEG-4 Visual
    Профиль формата : Advanced Simple@L5
    Параметр BVOP формата : 2
    Параметр QPel формата : Нет
    Параметр GMC формата : Без точки перехода
    Параметр матрицы формата : Выборочная
    Идентификатор кодека : XVID
    Идентификатор кодека/Подсказка : XviD
    Продолжительность : 1 ч. 29 м.
    Битрейт : 1031 Кбит/сек
    Ширина : 656 пикселей
    Высота : 272 пикселя
    Соотношение сторон : 2,40:1
    Частота кадров : 23,976 кадра/сек
    Цветовое пространство : YUV
    Субдискретизация насыщенности : 4:2:0
    Битовая глубина : 8 бит
    Тип развёртки : Прогрессивная
    Метод сжатия : С потерями
    Бит/(Пиксели*Кадры) : 0.241
    Размер потока : 659 Мбайт (89%)
    Библиотека кодирования : XviD 73
    Аудио
    Идентификатор : 1
    Формат : MPEG Audio
    Версия формата : Version 1
    Профиль формата : Layer 3
    Режим : Joint stereo
    Расширение режима : MS Stereo
    Идентификатор кодека : 55
    Идентификатор кодека/Подсказка : MP3
    Продолжительность : 1 ч. 29 м.
    Вид битрейта : Переменный
    Битрейт : 121 Кбит/сек
    Номинальный битрейт : 128 Кбит/сек
    Каналы : 2 канала
    Частота : 48,0 КГц
    Метод сжатия : С потерями
    Размер потока : 77,4 Мбайт (10%)
    Выравнивание : Соединение по промежуткам
    Продолжительность промежутка : 24 мс. (0,58 видеокадр)
    Время предзагрузки промежутка : 152 мс.
    Библиотека кодирования : LAME3.99r
    Залил: Wazzzup RK
    Размер скачиваемого торрента: 744.36 MB (780519613 Bytes)


    Люси/Lucy (2014) НDRip от ExKinoRay | Лицензия скачать через торрент бесплатно
    загрузка...
    Рейтинг →
     (голосов: 1, оценка 4/5, голосовать можно 1 раз )

    Другие торренты по теме:

  • Я люблю Люси / I Love Lucy (1951) DVDRip | Sub
  • Война Люси / Lucie Aubrac (1997) DVDRip-AVC от Temperest
  • Я люблю Люси / I Love Lucy (1951 – 1957) DVDRip | P,L
  • Люси (2014) скачать через торрент бесплатно
  • OST - Люси / Lucy (2014) MP3 от AGR - Generalfilm
  • Люси / Lucy (2014) CAMRip | L1 скачать через торрент бесплатно
  • Люси / Lucy
  • Люси Краун


    • Комментарии (0):

      Информация

      Информация

        Посетители, находящиеся в группе Гости, не могут оставлять комментарии в данной новости.

        ↓ Меню



        ↓ Опрос

        А Вы добавили сайт в закладки?
        Да
        Не


        Top 10 за месяц (Фильмы)