.
Авторизация | Регистрация
Хочешь лучшие торренты? Добавь свой email!
Добавить
» » Мёртвая зона / The Dead Zone (1983) BDRip 1080p by msltel | P, P2, A, L1 скачать торрент бесплатно




    Мёртвая зона / The Dead Zone (1983) BDRip 1080p by msltel | P, P2, A, L1 скачать торрент бесплатно

    Опубликовал: Админ | Дата: 27-02-2015, 11:10 | Просмотров: 133


    Создали в: 1983
    Снималось в: США
    Категория жанра: ужасы, триллер, драма, детектив
    Время просмотра: 01:43:43
    Перевод текста: профессиональный многоголосый, профессиональный двухголосый, авторский, любительский одноголосый
    Субтитры: русские, английские (все отдельно)
    Главный режиссёр: Дэвид Кроненберг
    Актеры: Кристофер Уокен, Брук Адамс, Том Скерритт, Херберт Лом, Энтони Зербе, Коллин Дьюхёрст, Мартин Шин, Николас Кэмпбелл, Шон Салливан, Джеки Барроуз
    Сюжет: Этот фильм — история человека, который после несчастного случая обнаружил в себе выдающиеся, поистине уникальные психофизические способности и попытался найти место в окружающем мире, извлекая из своего дара пользу для всех людей.

    Качество фильма: BDRip 1080pСравнение с исходником
    Тип видео: MKV
    Информация о видео кодек: H.264
    Информация о звуке кодек: AC3
    Информация о видео: 16 Mбит/с, 1920x1080, 23.976 кадра/с, 0.322 bpp
    Информация о звуке 1:русский, AC3, 448 kbps, 6 ch, 48 kHz профессиональный многоголосый, Позитив Мультимедиа
    Информация о звуке 2:русский, AC3, 448 kbps, 6 ch, 48 kHz профессиональный двухголосый, CP Digital
    Информация о звуке 3:русский, AC3, 448 kbps, 6 ch, 48 kHz авторский, Юрий Живов
    Отдельные файлы
    Информация о звуке:русский, AC3, 192 kbps, 2 ch, 48 kHz профессиональный многоголосый, TB3
    Информация о звуке:русский, AC3, 192 kbps, 2 ch, 48 kHz авторский, Алексей Михалёв
    Информация о звуке:русский, AC3, 192 kbps, 2 ch, 48 kHz авторский, Юрий Сербин
    Информация о звуке:русский, AC3, 192 kbps, 2 ch, 48 kHz авторский, Юрий Товбин
    Информация о звуке:русский, AC3, 192 kbps, 2 ch, 48 kHz любительский одноголосый, ужастик
    Информация о звуке:английский, AC3, 448 kbps, 6 ch, 48 kHz оригинал
    Имеются неименованные главы/чаптеры.
    Награды
    Сатурн, 1984 год
    Победитель (1):
    Лучший фильм ужасов
    Номинации (3):
    Лучший режиссер (Дэвид Кроненберг)
    Лучший актер (Кристофер Уокен)
    Лучший сценарий

    MediaInfo
    frame I:920 Avg QP:20.85 size:174988
    frame P:28860 Avg QP:20.51 size:135419
    frame B:119433 Avg QP:22.54 size: 72356
    Общее
    Полное имя : D:VideoMertvaja zona.1983.BDRip.1080pMertvaja zona.1983.AVO.rus.А.Михалёв.ac3
    Формат : AC-3
    Формат/Информация : Audio Coding 3
    Размер файла : 142 Мбайт
    Продолжительность : 1 ч. 43 м.
    Режим общего битрейта : Постоянный
    Общий поток : 192 Кбит/сек
    Аудио
    Формат : AC-3
    Формат/Информация : Audio Coding 3
    Расширение режима : CM (complete main)
    Параметр Endianness формата : Big
    Продолжительность : 1 ч. 43 м.
    Вид битрейта : Постоянный
    Битрейт : 192 Кбит/сек
    Каналы : 2 канала
    Расположение каналов : Front: L R
    Частота : 48,0 КГц
    Битовая глубина : 16 бит
    Метод сжатия : С потерями
    Размер потока : 142 Мбайт (100%)
    Общее
    Полное имя : D:VideoMertvaja zona.1983.BDRip.1080pMertvaja zona.1983.AVO.rus.Ю.Сербин.ac3
    Формат : AC-3
    Формат/Информация : Audio Coding 3
    Размер файла : 142 Мбайт
    Продолжительность : 1 ч. 43 м.
    Режим общего битрейта : Постоянный
    Общий поток : 192 Кбит/сек
    Аудио
    Формат : AC-3
    Формат/Информация : Audio Coding 3
    Расширение режима : CM (complete main)
    Параметр Endianness формата : Big
    Продолжительность : 1 ч. 43 м.
    Вид битрейта : Постоянный
    Битрейт : 192 Кбит/сек
    Каналы : 2 канала
    Расположение каналов : Front: L R
    Частота : 48,0 КГц
    Битовая глубина : 16 бит
    Метод сжатия : С потерями
    Размер потока : 142 Мбайт (100%)
    Общее
    Полное имя : D:VideoMertvaja zona.1983.BDRip.1080pMertvaja zona.1983.AVO.rus.Ю.Товбин.ac3
    Формат : AC-3
    Формат/Информация : Audio Coding 3
    Размер файла : 142 Мбайт
    Продолжительность : 1 ч. 43 м.
    Режим общего битрейта : Постоянный
    Общий поток : 192 Кбит/сек
    Аудио
    Формат : AC-3
    Формат/Информация : Audio Coding 3
    Расширение режима : CM (complete main)
    Параметр Endianness формата : Big
    Продолжительность : 1 ч. 43 м.
    Вид битрейта : Постоянный
    Битрейт : 192 Кбит/сек
    Каналы : 2 канала
    Расположение каналов : Front: L R
    Частота : 48,0 КГц
    Битовая глубина : 16 бит
    Метод сжатия : С потерями
    Размер потока : 142 Мбайт (100%)
    Общее
    Уникальный идентификатор : 198157288145309495441139983447723459592 (0x9513B49B3D3BEAEDBF568FA5CBA1C408)
    Полное имя : D:VideoMertvaja zona.1983.BDRip.1080pMertvaja zona.1983.BDRip.1080p.mkv
    Формат : Matroska
    Версия формата : Version 4/Version 2
    Размер файла : 12,8 Гбайт
    Продолжительность : 1 ч. 43 м.
    Общий поток : 17,7 Мбит/сек
    Дата кодирования : UTC 2014-11-16 13:22:09
    Программа кодирования : mkvmerge v7.3.0 (;Nouages;) 64bit built on Oct 22 2014 18:53:34
    Библиотека кодирования : libebml v1.3.0 + libmatroska v1.4.1
    DURATION : 01:43:43.360000000
    NUMBER_OF_FRAMES : 194480
    NUMBER_OF_BYTES : 348508160
    _STATISTICS_WRITING_APP : mkvmerge v7.3.0 (;Nouages;) 64bit built on Oct 22 2014 18:53:34
    _STATISTICS_WRITING_DATE_UTC : 2014-11-16 13:22:09
    _STATISTICS_TAGS : BPS DURATION NUMBER_OF_FRAMES NUMBER_OF_BYTES
    Видео
    Идентификатор : 1
    Формат : AVC
    Формат/Информация : Advanced Video Codec
    Профиль формата : High@L4.1
    Параметр CABAC формата : Да
    Параметр ReFrames формата : 4 кадра
    Идентификатор кодека : V_MPEG4/ISO/AVC
    Продолжительность : 1 ч. 43 м.
    Битрейт : 16,0 Мбит/сек
    Ширина : 1920 пикселей
    Высота : 1080 пикселей
    Соотношение сторон : 16:9
    Режим частоты кадров : Постоянный
    Частота кадров : 23,976 кадра/сек
    Цветовое пространство : YUV
    Субдискретизация насыщенности : 4:2:0
    Битовая глубина : 8 бит
    Тип развёртки : Прогрессивная
    Бит/(Пиксели*Кадры) : 0.322
    Размер потока : 11,6 Гбайт (90%)
    Заголовок : BDRip -- STarankov
    Библиотека кодирования : x264 core 142 r2431 ac76440
    Залил: msltel
    Размер скачиваемого торрента: 13.83 GB (14854036624 Bytes)


    Мёртвая зона/The Dead Zone (1983) BDRip 1080p by msltel | P, P2, A, L1 торрент скачать бесплатно
    загрузка...
    Рейтинг →
     (голосов: 1, оценка 3/5, голосовать можно 1 раз )

    Другие торренты по теме:

  • Мёртвая зона / The Dead Zone (2002–2007) DVDRip | Р


    • Комментарии (0):

      Информация

      Информация

        Посетители, находящиеся в группе Гости, не могут оставлять комментарии в данной новости.

        ↓ Меню



        ↓ Опрос

        А Вы добавили сайт в закладки?
        Да
        Не


        Top 10 за месяц (Фильмы)