.
Авторизация | Регистрация
Хочешь лучшие торренты? Добавь свой email!
Добавить
» » Стражи Галактики / Guardians of the Galaxy (2014) BDRip 720p от KinoRay | iTunes скачать торрент бесплатно




    Стражи Галактики / Guardians of the Galaxy (2014) BDRip 720p от KinoRay | iTunes скачать торрент бесплатно

    Опубликовал: Админ | Дата: 27-02-2015, 11:10 | Просмотров: 167


    Детально о кино
    Русское название: Стражи Галактики
    Русское название в мировом прокате: Guardians of the Galaxy
    Создали в: 2014
    Категория жанра: фантастика, боевик, приключения
    Главный режиссер: Джеймс Ганн
    Актеры:Крис Прэтт, Зои Салдана, Дэйв Батиста, Вин Дизель, Брэдли Купер, Ли Пейс, Майкл Рукер, Карен Гиллан, Джимон Хонсу, Джон Си Райли
    Сюжет фильма:Отважному путешественнику Питеру Квиллу попадает в руки таинственный артефакт, принадлежащий могущественному и безжалостному злодею Ронану, строящему коварные планы по захвату Вселенной. Питер оказывается в центре межгалактической охоты, где жертва — он сам.
    Единственный способ спасти свою жизнь — объединиться с четверкой нелюдимых изгоев: воинственным енотом по кличке Ракета, человекоподобным деревом Грутом, смертельно опасной Гаморой и одержимым жаждой мести Драксом, также известным как Разрушитель. Когда Квилл понимает, какой силой обладает украденный артефакт и какую опасность он представляет для вселенной, одиночка пойдет на все, чтобы сплотить случайных союзников для решающей битвы за судьбу галактики.


    Снималось в: США/Marvel Enterprises, Marvel Studios, Moving Picture Company
    Время просмотра: 02:00:51
    Тип перевода:Дублированное iTunes
    Файл
    Тип видео: MKV (x264)
    Качество фильма: BDRip 720p
    Информация о видео: 5078 kb/s, 1280x534
    Информация о звуке:Russian: AC3, 384 kb/s (6 ch)/English: DTS, 1510 kb/s (6 ch), AC3, 192 kb/s (2 ch) Commentary by Director
    Субтитры:English


    MI

    Format : Matroska
    Format version : Version 2
    File size : 6.17 GiB
    Duration : 2h 0mn
    Overall bit rate : 7 310 Kbps
    Encoded date : UTC 2014-11-17 18:30:53
    Writing application : mkvmerge v3.3.0 (;Language;) built on Mar 24 2010 14:59:24
    Writing library : libebml v0.8.0 + libmatroska v0.9.0
    Video
    ID : 1
    Format : AVC
    Format/Info : Advanced Video Codec
    Format profile : High@L4.1
    Format settings, CABAC : Yes
    Format settings, ReFrames : 12 frames
    Codec ID : V_MPEG4/ISO/AVC
    Duration : 2h 0mn
    Bit rate : 5 078 Kbps
    Width : 1 280 pixels
    Height : 534 pixels
    Display aspect ratio : 2.40:1
    Frame rate : 23.976 fps
    Color space : YUV
    Chroma subsampling : 4:2:0
    Bit depth : 8 bits
    Scan type : Progressive
    Bits/(Pixel*Frame) : 0.310
    Stream size : 4.29 GiB (69%)
    Writing library : x264 core 142 r2479 dd79a61
    Encoding settings : cabac=1/ref=12/deblock=1:-3:-3/analyse=0x3:0x133/me=umh/subme=10/psy=1/psy_rd=0.98:0.00/mixed_ref=1/me_range=48/chroma_me=1/trellis=2/8x8dct=1/cqm=0/deadzone=21,11/fast_pskip=1/chroma_qp_offset=-2/threads=8/lookahead_threads=1/sliced_threads=0/nr=0/decimate=1/interlaced=0/bluray_compat=0/constrained_intra=0/bframes=9/b_pyramid=2/b_adapt=2/b_bias=0/direct=3/weightb=1/open_gop=0/weightp=2/keyint=250/keyint_min=23/scenecut=40/intra_refresh=0/rc_lookahead=150/rc=crf/mbtree=0/crf=15.0/qcomp=0.70/qpmin=0/qpmax=69/qpstep=4/vbv_maxrate=50000/vbv_bufsize=62500/crf_max=0.0/nal_hrd=none/filler=0/ip_ratio=1.30/pb_ratio=1.20/aq=1:0.78
    Language : English
    Default : No
    Forced : Yes
    Audio #1
    ID : 2
    Format : AC-3
    Format/Info : Audio Coding 3
    Mode extension : CM (complete main)
    Format settings, Endianness : Big
    Codec ID : A_AC3
    Duration : 2h 0mn
    Bit rate mode : Constant
    Bit rate : 384 Kbps
    Channel(s) : 6 channels
    Channel positions : Front: L C R, Side: L R, LFE
    Sampling rate : 48.0 KHz
    Bit depth : 16 bits
    Compression mode : Lossy
    Stream size : 332 MiB (5%)
    Title : AC3 5.1 @ 384 kbps - Dub, iTunes Russia
    Language : Russian
    Default : Yes
    Forced : No
    Audio #2
    ID : 3
    Format : DTS
    Format/Info : Digital Theater Systems
    Codec ID : A_DTS
    Duration : 2h 0mn
    Bit rate mode : Constant
    Bit rate : 1 510 Kbps
    Channel(s) : 6 channels
    Channel positions : Front: L C R, Side: L R, LFE
    Sampling rate : 48.0 KHz
    Bit depth : 24 bits
    Compression mode : Lossy
    Delay relative to video : 11ms
    Stream size : 1.27 GiB (21%)
    Title : DTS 5.1 @ 1509 kbps
    Language : English
    Default : No
    Forced : No
    Audio #3
    ID : 4
    Format : AC-3
    Format/Info : Audio Coding 3
    Mode extension : CM (complete main)
    Format settings, Endianness : Big
    Codec ID : A_AC3
    Duration : 2h 0mn
    Bit rate mode : Constant
    Bit rate : 192 Kbps
    Channel(s) : 2 channels
    Channel positions : Front: L R
    Sampling rate : 48.0 KHz
    Bit depth : 16 bits
    Compression mode : Lossy
    Stream size : 166 MiB (3%)
    Title : AC3 2.0 @ 192 kbps - Commentary by Director
    Language : English
    Default : No
    Forced : No
    Text #1
    ID : 5
    Format : UTF-8
    Codec ID : S_TEXT/UTF8
    Codec ID/Info : UTF-8 Plain Text
    Language : English
    Default : No
    Forced : No
    Text #2
    ID : 6
    Format : UTF-8
    Codec ID : S_TEXT/UTF8
    Codec ID/Info : UTF-8 Plain Text
    Title : Commentary by Director
    Language : English
    Default : No
    Forced : No
    Menu
    00:00:00.000 : en:00:00:00.000
    00:04:05.704 : en:00:04:05.704
    00:11:21.806 : en:00:11:21.806
    00:15:21.712 : en:00:15:21.712
    00:20:54.420 : en:00:20:54.420
    00:27:11.213 : en:00:27:11.213
    00:33:58.828 : en:00:33:58.828
    00:44:28.291 : en:00:44:28.291
    00:50:53.008 : en:00:50:53.008
    00:55:17.564 : en:00:55:17.564
    00:59:45.207 : en:00:59:45.207
    01:06:06.921 : en:01:06:06.921
    01:14:46.023 : en:01:14:46.023
    01:22:20.644 : en:01:22:20.644
    01:26:29.726 : en:01:26:29.726
    01:30:23.877 : en:01:30:23.877
    01:35:58.378 : en:01:35:58.378
    01:40:46.749 : en:01:40:46.749
    01:47:35.366 : en:01:47:35.366
    01:53:16.623 : en:01:53:16.623
    02:00:10.829 : en:02:00:10.829
    Скриншоты для ознакомления

    Релиз:
    Размер скачиваемого торрента: 6.17 GB (6625468894 Bytes)

    Стражи Галактики/Guardians of the Galaxy (2014) BDRip 720p от KinoRay | iTunes торрент скачать бесплатно
    загрузка...
    Рейтинг →
     (голосов: 1, оценка 3/5, голосовать можно 1 раз )

    Другие торренты по теме:

  • Стражи Галактики (2014)
  • OST - Стражи Галактики / Guardians of the Galaxy (by Tyler Bates and VA) (2014) MP3 от AGR - Generalfilm скачать через торрент бесплатно
  • Стражи Галактики / Guardians of the Galaxy (2014) CAMRip
  • Стражи Галактики / Guardians of the Galaxy (2014) TC | Звук с CAMRip
  • Стражи Галактики / Guardians of the Galaxy (2014) TC | Звук с CAMRip
  • Стражи Галактики / Guardians of the Galaxy (2014) TC | Чистый звук
  • Стражи Галактики / Guardians of the Galaxy (2014) TC | Чистый звук
  • Стражи Галактики / Guardians of the Galaxy (2014) TC | Чистый звук скачать через торрент бесплатно


    • Комментарии (0):

      Информация

      Информация

        Посетители, находящиеся в группе Гости, не могут оставлять комментарии в данной новости.

        ↓ Меню



        ↓ Опрос

        А Вы добавили сайт в закладки?
        Да
        Не


        Top 10 за месяц (Фильмы)