.
Авторизация | Регистрация
Хочешь лучшие торренты? Добавь свой email!
Добавить
» » Недетские игры / Come Out and Play (2012) BDRemux 1080p от New-Team | P | лицензия скачать торрент бесплатно




    Недетские игры / Come Out and Play (2012) BDRemux 1080p от New-Team | P | лицензия скачать торрент бесплатно

    Опубликовал: Админ | Дата: 27-02-2015, 11:10 | Просмотров: 140

    Выходи, выходи, где ты спрятался? Выходи - поиграем

    Снималось в: Мексика/Canana, Videocine S.A. de C.V.
    Категория жанра: триллер, ужасы
    Создали в: 2012
    Время просмотра: 01:26:49
    Перевод текста:Профессиональный (многоголосый закадровый)
    Субтитры подготовлены: English (SDH)
    Оригинальная аудиодорожка: английский
    Главный режиссер: Макинов/Makinov
    Актеры: Винесса Шоу, Эбон Мосс-Бакрак, Даниэль Хименес Качо, Херардо Тарасена, Алехандро Альварес
    Сюжет: Молодая супружеская пара, Бет и Фрэнсис, находясь в отпуске, отправляются на красивый, но очень отдаленный остров. Бет беременна, и молодожены хотят насладиться последним своим совместным отдыхом перед рождением ребенка. По прибытии они замечают, что, несмотря на огромное количество местных детей, взрослые здесь практически отсутствуют. Первоначально они списывают этот факт на недавно прошедший фестиваль, но очень скоро понимают, что есть другое, более зловещее всему объяснение. И теперь они оба должны противостоять террору и принимать опасные и сложные решения, чтобы попытаться убраться с этого острова живыми.

    Качество фильма: BDRemux 1080p /DVD5 R5 - лицензионный диск от CD Land+ Come Out and Play 2012 BDRemux 1080p HYPERHD.mkv
    Тип видео: MKV
    Информация о видео: 1920х1080 (16:9), MPEG-4 AVC, 25993 kbps/23,976 fps/bit/pix=0.527
    Информация о звуке 1: Russian: 48 kHz, AC3, 3/2 (L,C,R,l,r) + LFE ch, 448.00 kbps constant | MVO лицензия
    Информация о звуке 2: Russian: 48 kHz, AC3, 2/0 (L,C) ch, 192.00 kbps constant | VO den904
    Информация о звуке 3: English/DTS-HD MA/5.1/48 kHz/3320 kbps/24-bit | Original
    Информация о звуке 4: English/AC3/5.1/48 kHz/640 kbps/16-bit | Original
    Тип видео субтитров: SoftSub (srt)
    Дополнительно: Фильм разбит на чаптеры, как на оригинальном Blu-ray диске.
    Раздача от:
    MediaInfo

    General
    Format : Matroska
    Format version : Version 4/Version 2
    File size : 18.5 GiB
    Duration : 1h 26mn
    Overall bit rate mode : Variable
    Overall bit rate : 30.4 Mbps
    Encoded date : UTC 2014-11-15 09:08:49
    Writing application : mkvmerge v7.2.0 (;On Every Street;) 64bit built on Sep 13 2014 15:52:10
    Writing library : libebml v1.3.0 + libmatroska v1.4.1
    Attachements : cover.jpg
    DURATION : 01:26:49.952000000
    NUMBER_OF_FRAMES : 162811
    NUMBER_OF_BYTES : 291757312
    _STATISTICS_WRITING_APP : mkvmerge v7.2.0 (;On Every Street;) 64bit built on Sep 13 2014 15:52:10
    _STATISTICS_WRITING_DATE_UTC : 2014-11-15 09:08:49
    _STATISTICS_TAGS : BPS DURATION NUMBER_OF_FRAMES NUMBER_OF_BYTES
    Video
    ID : 1
    Format : AVC
    Format/Info : Advanced Video Codec
    Format profile : High@L4.1
    Format settings, CABAC : Yes
    Format settings, ReFrames : 4 frames
    Codec ID : V_MPEG4/ISO/AVC
    Duration : 1h 26mn
    Bit rate mode : Variable
    Maximum bit rate : 37.0 Mbps
    Width : 1 920 pixels
    Height : 1 080 pixels
    Display aspect ratio : 16:9
    Frame rate mode : Constant
    Frame rate : 23.976 fps
    Color space : YUV
    Chroma subsampling : 4:2:0
    Bit depth : 8 bits
    Scan type : Progressive
    Language : English
    Default : Yes
    Forced : No
    Audio #1
    ID : 2
    Format : AC-3
    Format/Info : Audio Coding 3
    Mode extension : CM (complete main)
    Format settings, Endianness : Big
    Codec ID : A_AC3
    Duration : 1h 26mn
    Bit rate mode : Constant
    Bit rate : 448 Kbps
    Channel(s) : 6 channels
    Channel positions : Front: L C R, Side: L R, LFE
    Sampling rate : 48.0 KHz
    Bit depth : 16 bits
    Compression mode : Lossy
    Stream size : 278 MiB (1%)
    Default : Yes
    Forced : No
    Audio #2
    ID : 3
    Format : AC-3
    Format/Info : Audio Coding 3
    Mode extension : CM (complete main)
    Format settings, Endianness : Big
    Codec ID : A_AC3
    Duration : 1h 26mn
    Bit rate mode : Constant
    Bit rate : 192 Kbps
    Channel(s) : 2 channels
    Channel positions : Front: L R
    Sampling rate : 48.0 KHz
    Bit depth : 16 bits
    Compression mode : Lossy
    Stream size : 119 MiB (1%)
    Title : VO den904
    Language : Russian
    Default : No
    Forced : No
    Audio #3
    ID : 4
    Format : DTS
    Format/Info : Digital Theater Systems
    Format profile : MA/Core
    Mode : 16
    Format settings, Endianness : Big
    Codec ID : A_DTS
    Duration : 1h 26mn
    Bit rate mode : Variable
    Bit rate : Unknown/1 509 Kbps
    Channel(s) : 6 channels
    Channel positions : Front: L C R, Side: L R, LFE
    Sampling rate : 48.0 KHz
    Bit depth : 24 bits
    Compression mode : Lossless/Lossy
    Title : Original
    Language : English
    Default : No
    Forced : No
    Audio #4
    ID : 5
    Format : AC-3
    Format/Info : Audio Coding 3
    Mode extension : CM (complete main)
    Format settings, Endianness : Big
    Codec ID : A_AC3
    Duration : 1h 26mn
    Bit rate mode : Constant
    Bit rate : 640 Kbps
    Channel(s) : 6 channels
    Channel positions : Front: L C R, Side: L R, LFE
    Sampling rate : 48.0 KHz
    Bit depth : 16 bits
    Compression mode : Lossy
    Stream size : 397 MiB (2%)
    Title : Original
    Language : English
    Default : No
    Forced : No
    Text
    ID : 6
    Format : UTF-8
    Codec ID : S_TEXT/UTF8
    Codec ID/Info : UTF-8 Plain Text
    Title : SDH
    Language : English
    Default : No
    Forced : No
    Menu
    00:00:00.000 : en:01
    00:06:42.986 : en:02
    00:13:09.247 : en:03
    00:20:03.160 : en:04
    00:27:04.832 : en:05
    00:36:09.209 : en:06
    00:42:04.480 : en:07
    00:48:27.154 : en:08
    00:57:30.947 : en:09
    01:05:00.563 : en:10
    01:11:17.607 : en:11
    01:19:16.961 : en:12

    Скриншоты для ознакомления:



    Размер скачиваемого торрента: 18.47 GB (19828110041 Bytes)

    Недетские игры/Come Out and Play (2012) BDRemux 1080p от New-Team | P | лицензия торрент скачать бесплатно
    загрузка...
    Рейтинг →
     (голосов: 1, оценка 3/5, голосовать можно 1 раз )

    Другие торренты по теме:

  • Недетские игры / Come Out and Play (2012) BDRemux 1080p от HYPERHD | P, L1
  • Недетские игры / Come Out and Play (2012) BDRip от HQCLUB | Лицензия


    • Комментарии (0):

      Информация

      Информация

        Посетители, находящиеся в группе Гости, не могут оставлять комментарии в данной новости.

        ↓ Меню



        ↓ Опрос

        А Вы добавили сайт в закладки?
        Да
        Не


        Top 10 за месяц (Фильмы)