.
Авторизация | Регистрация
Хочешь лучшие торренты? Добавь свой email!
Добавить
» » Воссоединение семьи Мэдеи / Madeas Family Reunion (2006) HDTVRip от MediaClub | P2 скачать торрент бесплатно




    Воссоединение семьи Мэдеи / Madeas Family Reunion (2006) HDTVRip от MediaClub | P2 скачать торрент бесплатно

    Опубликовал: Админ | Дата: 27-02-2015, 11:10 | Просмотров: 248


    Детально о кино
    Русское название:Воссоединение семьи Мэдеи
    Русское название в мировом прокате:Madea;s Family Reunion
    Создали в:2006
    Категория жанра:Драма, мелодрама, комедия
    Главный режиссер:Тайлер Перри
    Актеры:Тайлер Перри, Блэр Андервуд, Линн Уитфилд, Борис Коджо, Лиза Арринделл Андерсон, Майя Энджелоу, Рошелль Эйтс, Дженифер Льюис, Танги Миллер, Кеке Палмер
    Сюжет фильма:
    Бабушка семейства Симмонсов, Мэдея задумала собрать всех своих родных вместе, воспользовавшись в качестве повода похоронами сестры и свадьбой внучки, запланированными на один и тот же уик-энд. Проблема в том, что неуемная натура Мэдеи снова приводит ее в ситуацию, справится с которой оказывается не совсем просто даже ей. Во-первых, она должна присматривать за отпущенной судом на ее поруки бунтаркой Ники…

    Снималось в:США
    Киностудия:Lions Gate Films Inc.
    Время просмотра:01:44:55
    Перевод текста:Профессиональный двухголосый (SDI Media)
    Файл
    Кодек для видео:XviD
    Качество фильма:HDTVRip
    Информация о видео:1790 Кбит/с, 720x400, 25.000 кадр/с
    Информация о звуке:Русский (АС3, 2 ch, 192 Кбит/с)
    Семпл
    Скриншоты для ознакомления

    MI
    Общее
    Полное имя : Vossoedinenie.semi.Medej.2006.HDTVRip.MediaClub.avi
    Формат : AVI
    Формат/Информация : Audio Video Interleave
    Размер файла : 1,46 Гбайт
    Продолжительность : 1 ч. 44 м.
    Общий поток : 1992 Кбит/сек
    Название фильма : MediaClub
    Программа кодирования : VirtualDubMod 1.5.10.2 (build 2540/release)
    Библиотека кодирования : VirtualDubMod build 2540/release
    Видео
    Идентификатор : 0
    Формат : MPEG-4 Visual
    Профиль формата : Advanced Simple@L5
    Параметр BVOP формата : 2
    Параметр QPel формата : Нет
    Параметр GMC формата : Без точки перехода
    Параметр матрицы формата : Default (MPEG)
    Идентификатор кодека : XVID
    Идентификатор кодека/Подсказка : XviD
    Продолжительность : 1 ч. 44 м.
    Битрейт : 1790 Кбит/сек
    Ширина : 720 пикселей
    Высота : 400 пикселей
    Соотношение сторон : 16:9
    Частота кадров : 25,000 кадров/сек
    Цветовое пространство : YUV
    Субдискретизация насыщенности : 4:2:0
    Битовая глубина : 8 бит
    Тип развёртки : Прогрессивная
    Метод сжатия : С потерями
    Бит/(Пиксели*Кадры) : 0.249
    Размер потока : 1,31 Гбайт (90%)
    Библиотека кодирования : XviD 65
    Аудио
    Идентификатор : 1
    Формат : AC-3
    Формат/Информация : Audio Coding 3
    Расширение режима : CM (complete main)
    Параметр Endianness формата : Big
    Идентификатор кодека : 2000
    Продолжительность : 1 ч. 44 м.
    Вид битрейта : Постоянный
    Битрейт : 192 Кбит/сек
    Каналы : 2 канала
    Расположение каналов : Front: L R
    Частота : 48,0 КГц
    Битовая глубина : 16 бит
    Метод сжатия : С потерями
    Размер потока : 144 Мбайт (10%)
    Выравнивание : Разделение по промежуткам
    Продолжительность промежутка : 40 мс. (1,00 видеокадр)
    Время предзагрузки промежутка : 500 мс.

    Награды

    Премия канала MTV, 2006 год
    Номинации (1):
    Лучшая комедийная роль (Тайлер Перри)

    Релиз подготовил:
    Залил: poja
    Размер скачиваемого торрента: 1.46 GB (1567197184 Bytes)

    Воссоединение семьи Мэдеи/Madeas Family Reunion (2006) HDTVRip от MediaClub | P2 торрент скачать бесплатно
    загрузка...
    Рейтинг →
     (голосов: 1, оценка 4/5, голосовать можно 1 раз )

    Другие торренты по теме:

  • Sword Art Online 14 Алисизация: Воссоединение скачать через торрент бесплатно
  • Семейное воссоединение / Family reunion (1989) DVDRip | P1


    • Комментарии (0):

      Информация

      Информация

        Посетители, находящиеся в группе Гости, не могут оставлять комментарии в данной новости.

        ↓ Меню



        ↓ Опрос

        А Вы добавили сайт в закладки?
        Да
        Не


        Top 10 за месяц (Фильмы)