.
Авторизация | Регистрация
Хочешь лучшие торренты? Добавь свой email!
Добавить
» » Сталкер / Stalker (2014) WEB-DL 720p | NewStudio скачать торрент бесплатно




    Сталкер / Stalker (2014) WEB-DL 720p | NewStudio скачать торрент бесплатно

    Опубликовал: Админ | Дата: 27-02-2015, 11:10 | Просмотров: 193


    Русское название:Сталкер
    Русское название в мировом прокате:Stalker
    Создали в:2014
    Категория жанра:Триллер, драма
    Снималось в:США, Outerbanks Entertainment, Warner Bros. Television
    Главный режиссер:Бронуэн Хьюз, Лиз Фридлендер
    Актеры:Дилан МакДермотт, Мэгги Кью, Гэбриел Бейтман, Эрик Стоклин, Шерилин Уилсон, Престон Джонс
    Сюжет фильма:
    История о детективах, работающих в отделе по контролю за угрозами департамента полиции Лос-Анджелеса. Они занимаются любыми делами, связанными с преследованием, от вуайеризма до кибер-преследования.
    Содержание
    01. Пилот/Pilot
    02. Что случилось с малышом Джеймсом?/What Ever Happened to Baby James
    03. Manhunt
    04. Phobia
    05. The Haunting
    06. Love Is a Battlefield
    07. Fanatic


    Снималось в:США, Outerbanks Entertainment, Warner Bros. Television
    Время просмотра:~ 00:44:00
    Перевод текста:Профессиональный (многоголосый, закадровый) - NewStudio
    Файл
    Кодек для видео:h.264
    Качество фильма:WEB-DL 720p
    Информация о видео:MPEG-4 AVC, ~ 4000 Кбит/с, 1280x718, 23.976 кадр/с
    Информация о звуке:Русский, английский (AC3, 6 ch, 384 Кбит/с)
    MI
    Общее
    Уникальный идентификатор : 200943671251265058260725896231193192745 (0x972C57E66D63A5E09C4BE9180EE0A929)
    Полное имя : Stalker.s01e01.WEBDL.720p.NewStudio.TV.mkv
    Формат : Matroska
    Версия формата : Version 2
    Размер файла : 1,48 Гбайт
    Продолжительность : 43 м.
    Общий поток : 4891 Кбит/сек
    Дата кодирования : UTC 2014-10-03 12:56:27
    Программа кодирования : mkvmerge v2.9.9 (;Tutu;) built on Nov 25 2009 21:13:32
    Библиотека кодирования : libebml v0.7.9 + libmatroska v0.8.1
    Attachements : small_cover.jpg/cover.jpg/cover_land.jpg/small_cover_land.jpg
    Видео
    Идентификатор : 1
    Формат : AVC
    Формат/Информация : Advanced Video Codec
    Профиль формата : High@L3.1
    Параметр CABAC формата : Нет
    Параметр ReFrames формата : 2 кадра
    Идентификатор кодека : V_MPEG4/ISO/AVC
    Продолжительность : 43 м.
    Битрейт : 4025 Кбит/сек
    Ширина : 1280 пикселей
    Высота : 718 пикселей
    Соотношение сторон : 16:9
    Режим частоты кадров : Постоянный
    Частота кадров : 23,976 кадра/сек
    Цветовое пространство : YUV
    Субдискретизация насыщенности : 4:2:0
    Битовая глубина : 8 бит
    Тип развёртки : Прогрессивная
    Бит/(Пиксели*Кадры) : 0.183
    Размер потока : 1,22 Гбайт (82%)
    Язык : English
    Default : Нет
    Forced : Нет
    Основные цвета : BT.709
    Характеристики трансфера : BT.709
    Коэффициенты матрицы : BT.709
    Аудио #1
    Идентификатор : 2
    Формат : AC-3
    Формат/Информация : Audio Coding 3
    Расширение режима : CM (complete main)
    Параметр Endianness формата : Big
    Идентификатор кодека : A_AC3
    Продолжительность : 43 м.
    Вид битрейта : Постоянный
    Битрейт : 384 Кбит/сек
    Каналы : 6 каналов
    Расположение каналов : Front: L C R, Side: L R, LFE
    Частота : 48,0 КГц
    Битовая глубина : 16 бит
    Метод сжатия : С потерями
    Размер потока : 119 Мбайт (8%)
    Язык : Russian
    Default : Да
    Forced : Да
    Аудио #2
    Идентификатор : 3
    Формат : AC-3
    Формат/Информация : Audio Coding 3
    Расширение режима : CM (complete main)
    Параметр Endianness формата : Big
    Идентификатор кодека : A_AC3
    Продолжительность : 43 м.
    Вид битрейта : Постоянный
    Битрейт : 384 Кбит/сек
    Каналы : 6 каналов
    Расположение каналов : Front: L C R, Side: L R, LFE
    Частота : 48,0 КГц
    Битовая глубина : 16 бит
    Метод сжатия : С потерями
    Размер потока : 119 Мбайт (8%)
    Язык : English
    Default : Нет
    Forced : Нет

    Скриншоты для ознакомления



    Размер скачиваемого торрента: 8.56 GB (9186064638 Bytes)

    Сталкер/Stalker (2014) WEB-DL 720p | NewStudio торрент скачать бесплатно
    загрузка...
    Рейтинг →
     (голосов: 1, оценка 5/5, голосовать можно 1 раз )

    Другие торренты по теме:

  • Николай Грошев - Первый Сталкер (2013) MP3
  • Андрей Державин и группа Сталкер - Коллекция (1988-2003) FLAC
  • Левицкий Андрей, Бобл Алексей - Я-сталкер 2, Антизона (2013) MP3 скачать через торрент бесплатно
  • Левицкий Андрей, Бобл Алексей - Я-сталкер 1, Осознание (2013) MP3 скачать через торрент бесплатно
  • Сталкер / Stalker
  • Сталкер / Stalker (2014) WEB-DLRip от GeneralFilm | NewStudio
  • Сталкер / Stalker (2014) WEB-DL 1080p | NewStudio
  • Я-сталкер. Трое против Зоны. скачать через торрент бесплатно


    • Комментарии (0):

      Информация

      Информация

        Посетители, находящиеся в группе Гости, не могут оставлять комментарии в данной новости.

        ↓ Меню



        ↓ Опрос

        А Вы добавили сайт в закладки?
        Да
        Не


        Top 10 за месяц (Фильмы)