.
Авторизация | Регистрация
Хочешь лучшие торренты? Добавь свой email!
Добавить
» » Планета обезьян: Революция / Dawn of the Planet of the Apes (2014) WEB-DLRip от ExKinoRay | D скачать торрент бесплатно




    Планета обезьян: Революция / Dawn of the Planet of the Apes (2014) WEB-DLRip от ExKinoRay | D скачать торрент бесплатно

    Опубликовал: Админ | Дата: 27-02-2015, 11:10 | Просмотров: 218


    Детально о кино
    Русское название:Планета обезьян: Революция
    Русское название в мировом прокате:Dawn of the Planet of the Apes
    Создали в:2014
    Главный режиссер:Мэтт Ривз
    Актеры:Энди Серкис, Джейсон Кларк, Гари Олдман, Кери Расселл, Тоби Кеббелл, Коди Смит-МакФи, Кирк Асеведо, Ник Тёрстон, Терри Нотари, Карин Коновал, Джуди Грир, Джон Эйз, Энрике Мурсиано
    Сюжет фильма:
    Численность генетически модифицированных обезьян, возглавляемых Цезарем, продолжает увеличиваться, но обезьянам угрожают люди, которым удалось выжить во время ужасной эпидемии десятилетней давности. Поначалу между соперниками устанавливается хрупкий мир, но он оказывается недолговечным. Обезьяны и люди находятся на грани войны, в ходе которой станет понятно, кто из них в будущем станет безраздельно править планетой.

    Снималось в:США
    Киностудия:Chernin Entertainment, Ingenious Media, TSG Entertainment
    Время просмотра:02:10:42
    Перевод текста:Профессиональный (полное дублирование) |Blu-ray 3D EUR|+ Украинский Blu-ray 3D EUR| + Английский
    Файл
    Кодек для видео:XviD
    Качество фильма:WEB-DLRip исх. WEB-DL 720p
    Информация о видео:720x384 (1.85:1), 23.976 fps, XviD 73 ~1815 kbps avg, 0.274 bit/pixel
    Информация о звуке 1:48.0 kHz, Audio Coding 3, 6 ch, 448 Kbps |Дубляж, Blu-ray 3D EUR|
    Информация о звуке 2:48.0 kHz, Audio Coding 3, 6 ch, 384 Kbps Украинский Blu-ray 3D EUR| дубляж отдельным файлом
    Информация о звуке 3:48.0 kHz, Audio Coding 3, 6 ch, 448 Kbps Английский дубляж отдельным файлом
    Субтитры:Русские (надписи и на речь обезьян разговор между собой) (ВШИТЫЕ) + русские полные
    Семпл
    MI
    Общее
    Полное имя : D:ВидеоPlaneta.obezjan-Revoljucija.2014.WEB-DLRip by Vovan366(ExKinoRay)Planeta.obezjan-Revoljucija.2014.WEB-DLRip by Vovan366(ExKinoRay).avi
    Формат : AVI
    Формат/Информация : Audio Video Interleave
    Профиль формата : OpenDML
    Размер файла : 2,08 Гбайт
    Продолжительность : 2 ч. 10 м.
    Общий поток : 2274 Кбит/сек
    Программа кодирования : VirtualDubMod 1.5.10.3 | www.virtualdub-fr.org || (build 2550/release)
    Библиотека кодирования : VirtualDubMod build 2550/release
    Видео
    Идентификатор : 0
    Формат : MPEG-4 Visual
    Профиль формата : Advanced Simple@L5
    Параметр BVOP формата : 2
    Параметр QPel формата : Нет
    Параметр GMC формата : Без точки перехода
    Параметр матрицы формата : Выборочная
    Идентификатор кодека : XVID
    Идентификатор кодека/Подсказка : XviD
    Продолжительность : 2 ч. 10 м.
    Битрейт : 1815 Кбит/сек
    Ширина : 720 пикселей
    Высота : 384 пикселя
    Соотношение сторон : 1,85:1
    Частота кадров : 23,976 кадра/сек
    Цветовое пространство : YUV
    Субдискретизация насыщенности : 4:2:0
    Битовая глубина : 8 бит
    Тип развёртки : Прогрессивная
    Метод сжатия : С потерями
    Бит/(Пиксели*Кадры) : 0.274
    Размер потока : 1,66 Гбайт (80%)
    Библиотека кодирования : XviD 73
    Аудио
    Идентификатор : 1
    Формат : AC-3
    Формат/Информация : Audio Coding 3
    Расширение режима : CM (complete main)
    Параметр Endianness формата : Big
    Идентификатор кодека : 2000
    Продолжительность : 2 ч. 10 м.
    Вид битрейта : Постоянный
    Битрейт : 448 Кбит/сек
    Каналы : 6 каналов
    Расположение каналов : Front: L C R, Side: L R, LFE
    Частота : 48,0 КГц
    Битовая глубина : 16 бит
    Метод сжатия : С потерями
    Размер потока : 418 Мбайт (20%)
    Выравнивание : Разделение по промежуткам
    Продолжительность промежутка : 42 мс. (1,00 видеокадр)
    Время предзагрузки промежутка : 500 мс.
    Скриншоты для ознакомления



    Релиз подготовил:
    Rip by:Vovan366
    Залил: Wazzzup RK
    Размер скачиваемого торрента: 2.83 GB (3042696278 Bytes)

    Планета обезьян: Революция/Dawn of the Planet of the Apes (2014) WEB-DLRip от ExKinoRay | D торрент скачать бесплатно
    загрузка...
    Рейтинг →
     (голосов: 1, оценка 5/5, голосовать можно 1 раз )

    Другие торренты по теме:

  • Планета обезьян: Коллекция / Planet of the Apes: Collection (1968-1973) BDRip от CinemaClub
  • OST - Планета Обезьян / Planet Of The Apes (2012) MP3
  • Планета обезьян / Planet of the Apes (2001) BDRip 1080p от denis 100 | D,P,A
  • OST - Планета обезьян: Революция / Dawn of the Planet of the Apes (2014) MP3 от AGR - Generalfilm скачать через торрент бесплатно
  • Планета обезьян: Революция / Dawn of the Planet of the Apes (2014) CAMRip *PROPER* | Звук с TS
  • Планета обезьян: Революция / Dawn of the Planet of the Apes скачать через торрент бесплатно
  • Планета обезьян: Революция / Dawn of the Planet of the Apes (2014) WEB-DL 720p | Звук с TS
  • Планета обезьян: Революция / Dawn of the Planet of the Apes (2014) WEB-DLRip | Звук с TS


    • Комментарии (0):

      Информация

      Информация

        Посетители, находящиеся в группе Гости, не могут оставлять комментарии в данной новости.

        ↓ Меню



        ↓ Опрос

        А Вы добавили сайт в закладки?
        Да
        Не


        Top 10 за месяц (Фильмы)