.
Авторизация | Регистрация
Хочешь лучшие торренты? Добавь свой email!
Добавить
» » Водолей / Deliria (1987) HDRip от Rulya74 | A скачать торрент бесплатно




    Водолей / Deliria (1987) HDRip от Rulya74 | A скачать торрент бесплатно

    Опубликовал: Админ | Дата: 27-02-2015, 11:10 | Просмотров: 171

    Водолей/Deliria (1987) HDRip

    Детально о кино
    Русское название:Водолей
    Русское название в мировом прокате:Deliria
    Создали в:1987
    Категория жанра:ужасы
    Главный режиссер:Микеле Соави
    Актеры:Дэвид Брэндон, Барбара Куписти, Доменико Фиоре, Роберт Глигоров, Микки Нокс, Джованни Ломбардо Радице, Клейн Паркер, Лоредана Паррелла, Мартин Филипс, Джеймс Сэмпсон
    Сюжет фильма:В небольшом театре идут репетиции мюзикла, главным героем которого должен стать кровавый маньяк-убийца Ирвинг Уоллес.
    По дьявольской иронии судьбы, сам прототип, только что сбежавший из закрытой психиатрической лечебницы, оказывается среди зрителей на генеральной репетиции. И начинается кровавая баня — ведь к концу спектакля все актеры могут превратиться в куски окровавленного мяса…

    Снималось в:Италия
    Время просмотра:01:30:16
    Перевод текста:Авторский одноголосый (А. Гаврилов)
    Файл
    Кодек для видео:XviD
    Качество фильма:HDRip
    Информация о видео:720x384 (1,85:1), 23.976 fps, 1906 kbps, 0.288 bit/pixel
    Информация о звуке:48 kHz, AC3 Dolby Digital, 6 ch, ~384.00 kbps

    MediaInfo
    Общее
    Полное имя : D:Deliria.1987.HDRip.avi
    Формат : AVI
    Формат/Информация : Audio Video Interleave
    Размер файла : 1,45 Гбайт
    Продолжительность : 1 ч. 30 м.
    Общий поток : 2300 Кбит/сек
    Название фильма : Deliria.1987.HDRip
    Программа кодирования : VirtualDubModRus 1.5.10.2 (build 2542/release)
    Правообладатель : rip by Rulya74
    Видео
    Идентификатор : 0
    Формат : MPEG-4 Visual
    Профиль формата : Advanced Simple@L5
    Параметр BVOP формата : 1
    Параметр QPel формата : Нет
    Параметр GMC формата : Без точки перехода
    Параметр матрицы формата : Выборочная
    Идентификатор кодека : XVID
    Идентификатор кодека/Подсказка : XviD
    Продолжительность : 1 ч. 30 м.
    Битрейт : 1906 Кбит/сек
    Ширина : 720 пикселей
    Высота : 384 пикселя
    Соотношение сторон : 1,85:1
    Частота кадров : 23,976 кадра/сек
    Цветовое пространство : YUV
    Субдискретизация насыщенности : 4:2:0
    Битовая глубина : 8 бит
    Тип развёртки : Прогрессивная
    Метод сжатия : С потерями
    Бит/(Пиксели*Кадры) : 0.288
    Размер потока : 1,20 Гбайт (83%)
    Библиотека кодирования : XviD 66
    Аудио
    Идентификатор : 1
    Формат : AC-3
    Формат/Информация : Audio Coding 3
    Расширение режима : CM (complete main)
    Параметр Endianness формата : Big
    Идентификатор кодека : 2000
    Продолжительность : 1 ч. 30 м.
    Вид битрейта : Постоянный
    Битрейт : 384 Кбит/сек
    Каналы : 6 каналов
    Расположение каналов : Front: L C R, Side: L R, LFE
    Частота : 48,0 КГц
    Битовая глубина : 16 бит
    Метод сжатия : С потерями
    Размер потока : 248 Мбайт (17%)
    Выравнивание : Разделение по промежуткам
    Продолжительность промежутка : 42 мс. (1,00 видеокадр)
    Время предзагрузки промежутка : 500 мс.
    Заголовок : Одноголосый закадровый (А. Гаврилов)
    Скриншоты для ознакомления


    Залил: Rulya74
    Размер скачиваемого торрента: 1.45 GB (1557000192 Bytes)

    Водолей/Deliria (1987) HDRip от Rulya74 | A торрент скачать бесплатно
    загрузка...
    Рейтинг →
     (голосов: 1, оценка 4/5, голосовать можно 1 раз )

    Другие торренты по теме:

  • Водолей / Deliria (1987) BDRip 720p от MediaClub | A скачать через торрент бесплатно
  • Водолей / Deliria (1987) BDRemux 1080p от MediaClub | A скачать через торрент бесплатно
  • Водолей / Aquarius (2015) WEB-DLRip | NewStudio
  • Водолей / Aquarius (2015) WEB-DL 720p | NewStudio
  • Водолей / Aquarius (2015) WEB-DL 720p | Jaskier
  • Водолей / Aquarius (2015) WEB-DLRip | Jaskier
  • Водолей / Aquarius (2015) WEB-DL 720p | Jaskier
  • Водолей / Aquarius (2015) WEB-DLRip | Jaskier


    • Комментарии (0):

      Информация

      Информация

        Посетители, находящиеся в группе Гости, не могут оставлять комментарии в данной новости.

        ↓ Меню



        ↓ Опрос

        А Вы добавили сайт в закладки?
        Да
        Не


        Top 10 за месяц (Фильмы)