.
Авторизация | Регистрация
Хочешь лучшие торренты? Добавь свой email!
Добавить
» » Три мушкетера / Les trois mousquetaires (1961) DVDRip от New-Team скачать торрент бесплатно




    Три мушкетера / Les trois mousquetaires (1961) DVDRip от New-Team скачать торрент бесплатно

    Опубликовал: Админ | Дата: 27-02-2015, 11:10 | Просмотров: 360

    Подвески королевы, Месть миледи


    Снималось в: Франция, Италия
    Создали в: Films Borderie, Fono Roma, Le Film d;Art, Les Films Modernes (I)
    Категория жанра: мелодрама, приключения
    Создали в: 1961
    Время просмотра: 03:14:21 (01:39:25 + 01:34:56)
    Перевод текста:Профессиональный (дублированный)Советский дубляж
    Оригинальная аудиодорожка: нет
    Субтитры подготовлены: нет
    Главный режиссер: Бернар Бордери/Bernard Borderie
    Актеры:
    Жерар Баррэ — Д’Артаньян (Советский дубляж — Артём Карапетян (1) и Владимир Сошальский (2)), Жорж Декриер — Атос (Советский дубляж — Борис Кордунов), Бернар Воринже — Портос (Советский дубляж — Роберт Чумак), Жак Тожа — Арамис (Советский дубляж — Олег Голубицкий), Даниель Сорано — Ришелье (Советский дубляж — Сергей Курилов), Милен Демонжо — Миледи де Винтер (Советский дубляж — Антонина Кончакова), Франсуаз Кристоф — Анна Австрийская (Советский дубляж — Нина Никитина), Жан Карме — Планше (Советский дубляж — Дмитрий Масанов), Ги Делорм — Рошфор (Советский дубляж — Михаил Глузский), Жак Бертье — герцог Бекингем (Советский дубляж — Владимир Дружников), Перретт Прадье — Констанс Бонасье (Советский дубляж — Юлиана Бугаева), Робер Берри — Бонасье (Советский дубляж — Яков Беленький), Анри Нассье — де Тревиль (Советский дубляж — Константин Тыртов), Ги Трежан — Людовик XIII (Советский дубляж — Юрий Саранцев (1) и Валентин Куклик (2)) и др.
    Сюжет:
    Итак, молодой гасконец Д`Артаньян прибывает в столицу на дрянной лошаденке непонятного цвета. Казалось, что может ждать деревенщину в Париже, кроме неприятностей? А вот что: служба в мушкетерском полку, любовь прелестнейшей из придворных дам, знакомство с королевой Анной Австрийской и приключения, приключения, приключения…
    Вот уж правда, счастье и несчастье идут рука об рука. Вспомните, как повезло Д`Артаньяну: его полюбила прелестная госпожа Бонасье, сама королева вознаградила его за отвагу, а главные забияки мушкетерского полка назвали гасконца своим другом. У Д`Артаньяна появился могущественный враг — сам кардинал Ришелье. Он не может простить мушкетеру истории с подвесками. Но даже кардинал — еще не беда. Куда страшней разъяренная белокурая тигрица миледи де Винтер. ДАртаньян встал у нее на пути, и она решает отомстить…



    Исходник:2хDVD9 R2Французская лицензия, реставрация
    Тип релиза:DVDRip
    Контейнер: AVI
    Информация о видео:704x288 (2,40:1), 25 fps, XviD ~ 935 kbps avg, 0.185 bit/pixel
    Информация о звуке: 48 kHz, MP3 2.0, 128 kbps Русский
    Раздача от:
    MediaInfo

    Общее
    Полное имя : Tri.mushketera.1961_DVDRip-1,46_New-team_by_AVP_Studio.avi
    Формат : AVI
    Формат/Информация : Audio Video Interleave
    Размер файла : 763 Мбайт
    Продолжительность : 1 ч. 39 м.
    Общий поток : 1073 Кбит/сек
    Программа кодирования : VirtualDubModRus 1.5.10.2 (build 2542/release)
    Библиотека кодирования : VirtualDubMod build 2542/release
    Видео
    Идентификатор : 0
    Формат : MPEG-4 Visual
    Профиль формата : Advanced Simple@L5
    Параметр BVOP формата : 1
    Параметр QPel формата : Нет
    Параметр GMC формата : Без точки перехода
    Параметр матрицы формата : Выборочная
    Идентификатор кодека : XVID
    Идентификатор кодека/Подсказка : XviD
    Продолжительность : 1 ч. 39 м.
    Битрейт : 935 Кбит/сек
    Ширина : 704 пикселя
    Высота : 288 пикселей
    Соотношение сторон : 2,40:1
    Частота кадров : 25,000 кадров/сек
    Цветовое пространство : YUV
    Субдискретизация насыщенности : 4:2:0
    Битовая глубина : 8 бит
    Тип развёртки : Прогрессивная
    Метод сжатия : С потерями
    Бит/(Пиксели*Кадры) : 0.185
    Размер потока : 665 Мбайт (87%)
    Библиотека кодирования : XviD 73
    Аудио
    Идентификатор : 1
    Формат : MPEG Audio
    Версия формата : Version 1
    Профиль формата : Layer 3
    Идентификатор кодека : 55
    Идентификатор кодека/Подсказка : MP3
    Продолжительность : 1 ч. 39 м.
    Вид битрейта : Постоянный
    Битрейт : 128 Кбит/сек
    Каналы : 2 канала
    Частота : 48,0 КГц
    Метод сжатия : С потерями
    Размер потока : 91,0 Мбайт (12%)
    Выравнивание : Соединение по промежуткам
    Продолжительность промежутка : 40 мс. (1,00 видеокадр)
    Время предзагрузки промежутка : 504 мс.
    Библиотека кодирования : LAME3.99r
    Залил: AVPStudio
    Размер скачиваемого торрента: 1.46 GB (1563985920 Bytes)


    Три мушкетера/Les trois mousquetaires (1961) DVDRip от New-Team торрент скачать бесплатно
    загрузка...
    Рейтинг →
     (голосов: 1, оценка 5/5, голосовать можно 1 раз )

    Другие торренты по теме:

  • Три мушкетера / The Three Musketeers (1993) HDTVRip 720p от RG MixTorrent | P
  • Александр Дюма - Три мушкетера (2010) MP3
  • Максим Дунаевский - Три мушкетера (1981) (1995) FLAC
  • Три мушкетера (2013)
  • Три мушкетера (2013) SATRip от GeneralFilm
  • Три мушкетера (2013) HDTVRip от MediaClub скачать через торрент бесплатно
  • Три мушкетера (2013) HDTVRiр-AVC скачать через торрент бесплатно
  • Три мушкетера (2013) WEB-DLRip от Generalfilm скачать через торрент бесплатно


    • Комментарии (0):

      Информация

      Информация

        Посетители, находящиеся в группе Гости, не могут оставлять комментарии в данной новости.

        ↓ Меню



        ↓ Опрос

        А Вы добавили сайт в закладки?
        Да
        Не


        Top 10 за месяц (Фильмы)