.
Авторизация | Регистрация
Хочешь лучшие торренты? Добавь свой email!
Добавить
» » Ходячие мертвецы / The Walking Dead (2014) WEB-DL 1080p от HDClub | FOX, LostFilm, UATEAM скачать торрент бесплатно




    Ходячие мертвецы / The Walking Dead (2014) WEB-DL 1080p от HDClub | FOX, LostFilm, UATEAM скачать торрент бесплатно

    Опубликовал: Админ | Дата: 27-02-2015, 11:10 | Просмотров: 164


    Детально о кино
    Русское название:Ходячие мертвецы
    Русское название в мировом прокате:The Walking Dead
    Создали в:2014
    Категория жанра:Мистический триллер, ужасы, зомби
    Главный режиссер:Эрнест Р. Дикерсон, Гай Ферленд, Гвинет Хордер-Пэйтон
    Актеры:Эндрю Линкольн, Скотт Уилсон, Данай Джекесай Гурира, Дэвид Моррисси, Стивен Юн, Лорен Коэн, Чендлер Риггз, Норман Ридус, Мелисса Сюзанн МакБрайд, Эмили Кинни, Чад Коулмэн, Сонеква Мартин
    Сюжет фильма:
    Сериал рассказывает историю жизни семьи шерифа после того, как зомби — эпидемия апокалипсических масштабов захлестнула земной шар. Шериф Рик Грайм путешествует со своей семьей и небольшой группой выживших в поисках безопасного места для жизни. Но постоянный страх смерти каждый день приносит тяжелые потери, заставляя героев почувствовать глубины человеческой жестокости. Рик пытается спасти свою семью, и открывает для себя, что всепоглощающий страх тех, кто выжил, может быть опаснее бессмысленных мертвецов, бродящих по земле.

    Снималось в:США
    Время просмотра:~ 00:44:00
    Перевод текста:Профессиональный (многоголосый, закадровый) - FOX, LostFilm
    Файл
    Тип видео:MKV
    Источник:iTunes
    Информация о видео:1920x1080, 1916x1076 at 23.976 fps, MPEG-4 AVC, ~5000 kbps avg
    Информация о звуке#1:Russian: 48 kHz, AC3, 3/2 (L,C,R,l,r) + LFE ch, ~384.00 kbps avg |Многоголосый закадровый, FOX|
    Информация о звуке#2:Russian: 48 kHz, AC3, 3/2 (L,C,R,l,r) + LFE ch, ~384.00 kbps avg |Многоголосый закадровый, LostFilm|
    Информация о звуке#3:Ukrainian: 48 kHz, AC3, 3/2 (L,C,R,l,r) + LFE ch, ~384.00 kbps avg |Многоголосый закадровый, UATEAM|
    Информация о звуке#4:English: 48 kHz, AC3, 3/2 (L,C,R,l,r) + LFE ch, ~384.00 kbps avg
    Субтитры:Russian (N-Team), English
    Дополнительно
    За дорожку LostFilm благодарим s_white.

    MI
    Общее
    Уникальный идентификатор : 198779627544366749219055153228704641694 (0x958B904EC94BFAE18D0AE8E037D3F29E)
    Полное имя : The.Walking.Dead.S05.1080p.WEB-DL.2xRus.Ukr.Eng.HDCLUBThe.Walking.Dead.S05E04.Slabtown.1080p.WEB-DL.2xRus.Ukr.Eng.HDCLUB.mkv
    Формат : Matroska
    Версия формата : Version 4/Version 2
    Размер файла : 2,04 Гбайт
    Продолжительность : 42 м.
    Общий поток : 6798 Кбит/сек
    Название фильма : The Walking Dead 5x04 (2014) - Release for HDCLUB
    Дата кодирования : UTC 2014-11-05 15:16:22
    Программа кодирования : mkvmerge v7.3.0 (;Nouages;) 64bit built on Oct 22 2014 18:53:34
    Библиотека кодирования : libebml v1.3.0 + libmatroska v1.4.1
    Видео
    Идентификатор : 1
    Формат : AVC
    Формат/Информация : Advanced Video Codec
    Профиль формата : High@L4.0
    Параметр CABAC формата : Да
    Параметр ReFrames формата : 4 кадра
    Идентификатор кодека : V_MPEG4/ISO/AVC
    Продолжительность : 42 м.
    Ширина : 1916 пикселей
    Высота : 1076 пикселей
    Соотношение сторон : 16:9
    Соотношение сторон в оригинале : 16:9
    Режим частоты кадров : Постоянный
    Частота кадров : 23,976 кадра/сек
    Цветовое пространство : YUV
    Субдискретизация насыщенности : 4:2:0
    Битовая глубина : 8 бит
    Тип развёртки : Прогрессивная
    Заголовок : The Walking Dead 5x04: Slabtown/Слэбтаун - Release for HDCLUB
    Язык : English
    Default : Да
    Forced : Нет
    Основные цвета : BT.709
    Характеристики трансфера : BT.709
    Коэффициенты матрицы : BT.709
    Аудио #1
    Идентификатор : 2
    Формат : AC-3
    Формат/Информация : Audio Coding 3
    Расширение режима : CM (complete main)
    Параметр Endianness формата : Big
    Идентификатор кодека : A_AC3
    Продолжительность : 42 м.
    Вид битрейта : Постоянный
    Битрейт : 384 Кбит/сек
    Каналы : 6 каналов
    Расположение каналов : Front: L C R, Side: L R, LFE
    Частота : 48,0 КГц
    Битовая глубина : 16 бит
    Метод сжатия : С потерями
    Размер потока : 118 Мбайт (6%)
    Заголовок : FOX
    Язык : Russian
    Default : Да
    Forced : Нет
    Аудио #2
    Идентификатор : 3
    Формат : AC-3
    Формат/Информация : Audio Coding 3
    Расширение режима : CM (complete main)
    Параметр Endianness формата : Big
    Идентификатор кодека : A_AC3
    Продолжительность : 42 м.
    Вид битрейта : Постоянный
    Битрейт : 384 Кбит/сек
    Каналы : 6 каналов
    Расположение каналов : Front: L C R, Side: L R, LFE
    Частота : 48,0 КГц
    Битовая глубина : 16 бит
    Метод сжатия : С потерями
    Размер потока : 118 Мбайт (6%)
    Заголовок : LostFilm
    Язык : Russian
    Default : Нет
    Forced : Нет
    Аудио #3
    Идентификатор : 4
    Формат : AC-3
    Формат/Информация : Audio Coding 3
    Расширение режима : CM (complete main)
    Параметр Endianness формата : Big
    Идентификатор кодека : A_AC3
    Продолжительность : 42 м.
    Вид битрейта : Постоянный
    Битрейт : 384 Кбит/сек
    Каналы : 6 каналов
    Расположение каналов : Front: L C R, Side: L R, LFE
    Частота : 48,0 КГц
    Битовая глубина : 16 бит
    Метод сжатия : С потерями
    Размер потока : 118 Мбайт (6%)
    Заголовок : Omikron
    Язык : Ukrainian
    Default : Нет
    Forced : Нет
    Аудио #4
    Идентификатор : 5
    Формат : AC-3
    Формат/Информация : Audio Coding 3
    Расширение режима : CM (complete main)
    Параметр Endianness формата : Big
    Идентификатор кодека : A_AC3
    Продолжительность : 42 м.
    Вид битрейта : Постоянный
    Битрейт : 384 Кбит/сек
    Каналы : 6 каналов
    Расположение каналов : Front: L C R, Side: L R, LFE
    Частота : 48,0 КГц
    Битовая глубина : 16 бит
    Метод сжатия : С потерями
    Размер потока : 118 Мбайт (6%)
    Язык : English
    Default : Нет
    Forced : Нет
    Аудио #5
    Идентификатор : 6
    Формат : AAC
    Формат/Информация : Advanced Audio Codec
    Профиль формата : LC
    Идентификатор кодека : A_AAC
    Продолжительность : 42 м.
    Каналы : 2 канала
    Расположение каналов : Front: L R
    Частота : 48,0 КГц
    Метод сжатия : С потерями
    Язык : English
    Default : Нет
    Forced : Нет
    Текст #1
    Идентификатор : 7
    Формат : UTF-8
    Идентификатор кодека : S_TEXT/UTF8
    Идентификатор кодека/Информация : UTF-8 Plain Text
    Заголовок : N-Team
    Язык : Russian
    Default : Нет
    Forced : Нет
    Текст #2
    Идентификатор : 8
    Формат : UTF-8
    Идентификатор кодека : S_TEXT/UTF8
    Идентификатор кодека/Информация : UTF-8 Plain Text
    Язык : English
    Default : Нет
    Forced : Нет

    Скриншоты для ознакомления



    Релиз подготовил:by Nez
    Размер скачиваемого торрента: 8.12 GB (8715968466 Bytes)

    Ходячие мертвецы/The Walking Dead (2014) WEB-DL 1080p от HDClub | FOX, LostFilm, UATEAM торрент скачать бесплатно
    загрузка...
    Рейтинг →
     (голосов: 1, оценка 3/5, голосовать можно 1 раз )

    Другие торренты по теме:

  • Ходячие мертвецы / The Walking Dead (2012) WEB-DLRip-AVC | Fox Crime, LostFilm, Кубик в Кубе
  • Ходячие мертвецы / The Walking Dead (2011) BDRip от HQ-ViDEO
  • OST - Ходячие мертвецы / The Walking Dead (2010 - 2013) MP3
  • Ходячие Мертвецы / The Walking Dead (2013) HDTVRip-AVC | Трейлер
  • Ходячие Мертвецы / The Walking Dead (2013) HDTV 720p скачать через торрент бесплатно
  • Ходячие Мертвецы / The Walking Dead (Webisodes) Season 3 (2013) BDRip 1080p скачать через торрент бесплатно
  • Ходячие мертвецы / The Walking Dead (2012-2013) WEB-DLRip-AVC 1080p l Fox Crime скачать через торрент бесплатно
  • Ходячие мертвецы / The Walking Dead (2013) WEB-DLRip от Scarabey | LostFilm скачать через торрент бесплатно


    • Комментарии (0):

      Информация

      Информация

        Посетители, находящиеся в группе Гости, не могут оставлять комментарии в данной новости.

        ↓ Меню



        ↓ Опрос

        А Вы добавили сайт в закладки?
        Да
        Не


        Top 10 за месяц (Фильмы)