.
Авторизация | Регистрация
Хочешь лучшие торренты? Добавь свой email!
Добавить
» » Дископат / Discopathe (2013) BDRip 720p от СИНЕМАНИЯ | | L1 скачать торрент бесплатно




    Дископат / Discopathe (2013) BDRip 720p от СИНЕМАНИЯ | | L1 скачать торрент бесплатно

    Опубликовал: Админ | Дата: 27-02-2015, 11:10 | Просмотров: 166


    Детально о кино
    Русское название:Дископат
    Русское название в мировом прокате:Discopathe
    Создали в:2013
    Категория жанра:Ужасы, фэнтези, криминал
    Главный режиссер:Рено Готье
    Актеры:Франсуа Обен, Сандрин Биссон, Нэнси Блэ, Кэтерин Клилэнд, Иван Фройд
    Сюжет фильма:
    Середина 70-х годов прошлого века. Застенчивый молодой человек, житель Нью-Йорка, ведёт ничем не примечательную жизнь, пока его роковым образом не настигают ритмы музыки нового жанра - диско. Не в силах сдерживать смертоубийственные порывы, в основе которых лежит давняя детская травма, Дуэйн Луис превращается в опасного серийного убийцу и бежит в Монреаль...

    Снималось в:Канада
    Киностудия:Durango, Voyous Films
    Время просмотра:01:20:57
    Перевод текста:Любительский многоголосый закадровый
    Файл
    Кодек для видео:MPEG-4 AVC
    Качество фильма:BDRip (720p)
    Информация о видео:AVC, 1280x538 (2.35:1), 23.976 fps, 8 294 Kbps (0.502 bit/pixel)
    Информация о звуке:Русский (AC3, 6 ch, 448 Кбит/с), английский (AC3, 6 ch, 640 Кбит/с)
    Субтитры:Русские, английские
    Скриншоты для ознакомления



    MediaInfo
    General
    Unique ID : 178650065744909468913847711906660414507 (0x8666C0494D18E17FBB5973B50180F42B)
    Complete name : /Discopath.2013.Blu.Ray.720p.CINEMANIA.mkv
    Format : Matroska
    Format version : Version 4/Version 2
    File size : 5.41 GiB
    Duration : 1h 20mn
    Overall bit rate : 9 573 Kbps
    Movie name : Release Group CINEMANIA
    Encoded date : UTC 2014-11-04 20:40:21
    Writing application : mkvmerge v7.3.0 (;Nouages;) 64bit built on Oct 22 2014 18:53:34
    Writing library : libebml v1.3.0 + libmatroska v1.4.1
    Video
    ID : 1
    Format : AVC
    Format/Info : Advanced Video Codec
    Format profile : High@L4.1
    Format settings, CABAC : Yes
    Format settings, ReFrames : 12 frames
    Codec ID : V_MPEG4/ISO/AVC
    Duration : 1h 20mn
    Bit rate : 8 294 Kbps
    Width : 1 280 pixels
    Height : 538 pixels
    Display aspect ratio : 2.40:1
    Frame rate : 23.976 fps
    Color space : YUV
    Chroma subsampling : 4:2:0
    Bit depth : 8 bits
    Scan type : Progressive
    Bits/(Pixel*Frame) : 0.502
    Stream size : 4.69 GiB (87%)
    Title : Release Group CINEMANIA
    Writing library : x264 core 142 r2431+42 c69a006 tMod 8-bit@4:2:0 X86_64
    Encoding settings : cabac=1/ref=12/deblock=1:-3:-3/analyse=0x3:0x133/me=umh/subme=10/psy=1/fade_compensate=0.00/psy_rd=1.05:0.00/mixed_ref=1/me_range=24/chroma_me=1/trellis=2/8x8dct=1/cqm=0/deadzone=21,11/fast_pskip=0/chroma_qp_offset=-2/threads=12/lookahead_threads=2/sliced_threads=0/nr=0/decimate=0/interlaced=0/bluray_compat=0/constrained_intra=0/fgo=0/bframes=9/b_pyramid=2/b_adapt=2/b_bias=0/direct=3/weightb=1/open_gop=0/weightp=2/keyint=250/keyint_min=23/scenecut=40/intra_refresh=0/rc=crf/mbtree=0/crf=16.4000/qcomp=0.65/qpmin=0:0:0/qpmax=69:69:69/qpstep=4/ip_ratio=1.20/pb_ratio=1.10/aq=1:0.68/aq-sensitivity=10.00/aq-factor=1.00:1.00:1.00/aq2=0/aq3=0
    Language : English
    Default : Yes
    Forced : No
    Matrix coefficients : BT.709-5, BT.1361, IEC 61966-2-4 709, SMPTE RP177
    Audio #1
    ID : 2
    Format : AC-3
    Format/Info : Audio Coding 3
    Mode extension : CM (complete main)
    Format settings, Endianness : Big
    Codec ID : A_AC3
    Duration : 1h 20mn
    Bit rate mode : Constant
    Bit rate : 448 Kbps
    Channel(s) : 6 channels
    Channel positions : Front: L C R, Side: L R, LFE
    Sampling rate : 48.0 KHz
    Bit depth : 16 bits
    Compression mode : Lossy
    Stream size : 259 MiB (5%)
    Title : Александр Харченко, DeadSno den904
    Language : Russian
    Default : Yes
    Forced : Yes
    Audio #2
    ID : 3
    Format : AC-3
    Format/Info : Audio Coding 3
    Mode extension : CM (complete main)
    Format settings, Endianness : Big
    Codec ID : A_AC3
    Duration : 1h 20mn
    Bit rate mode : Constant
    Bit rate : 640 Kbps
    Channel(s) : 6 channels
    Channel positions : Front: L C R, Side: L R, LFE
    Sampling rate : 48.0 KHz
    Bit depth : 16 bits
    Compression mode : Lossy
    Stream size : 371 MiB (7%)
    Language : English
    Default : No
    Forced : No
    Text #1
    ID : 4
    Format : UTF-8
    Codec ID : S_TEXT/UTF8
    Codec ID/Info : UTF-8 Plain Text
    Language : Russian
    Default : Yes
    Forced : Yes
    Text #2
    ID : 5
    Format : UTF-8
    Codec ID : S_TEXT/UTF8
    Codec ID/Info : UTF-8 Plain Text
    Title : Антонио
    Language : Russian
    Default : No
    Forced : No
    Text #3
    ID : 6
    Format : UTF-8
    Codec ID : S_TEXT/UTF8
    Codec ID/Info : UTF-8 Plain Text
    Language : English
    Default : No
    Forced : No
    Menu
    00:00:00.000 : en:00:00:00.000
    00:07:03.882 : en:00:07:03.882
    00:14:31.954 : en:00:14:31.954
    00:19:09.732 : en:00:19:09.732
    00:25:31.530 : en:00:25:31.530
    00:30:58.482 : en:00:30:58.482
    00:36:07.874 : en:00:36:07.874
    00:40:59.499 : en:00:40:59.499
    00:47:25.384 : en:00:47:25.384
    00:53:06.683 : en:00:53:06.683
    00:57:52.177 : en:00:57:52.177
    01:05:03.316 : en:01:05:03.316
    01:13:41.167 : en:01:13:41.167

    Релиз подготовил:
    Размер скачиваемого торрента: 5.41 GB (5812837294 Bytes)

    Дископат/Discopathe (2013) BDRip 720p от СИНЕМАНИЯ | | L1 торрент скачать бесплатно
    загрузка...
    Рейтинг →
     (голосов: 1, оценка 3/5, голосовать можно 1 раз )

    Другие торренты по теме:

  • Дископат / Discopathe (2013) HDRip | L1
  • Дископат / Discopathe (2013) BDRip 1080p от CINEMANIA | L скачать через торрент бесплатно


    • Комментарии (0):

      Информация

      Информация

        Посетители, находящиеся в группе Гости, не могут оставлять комментарии в данной новости.

        ↓ Меню



        ↓ Опрос

        А Вы добавили сайт в закладки?
        Да
        Не


        Top 10 за месяц (Фильмы)