.
Авторизация | Регистрация
Хочешь лучшие торренты? Добавь свой email!
Добавить
» » Безумная свадьба / Quest-ce quon a fait au Bon Dieu (2014) BDRip 1080p | Лицензия скачать через торрент бесплатно




    Безумная свадьба / Quest-ce quon a fait au Bon Dieu (2014) BDRip 1080p | Лицензия скачать через торрент бесплатно

    Опубликовал: Админ | Дата: 27-02-2015, 11:10 | Просмотров: 143



    Детально о кино
    Русское название: Безумная свадьба
    Русское название в мировом прокате: Qu;est-ce qu;on a fait au Bon Dieu?
    Создали в: 2014
    Категория жанра:комедия
    Главный режиссер: Филипп де Шоврон
    Актеры: Кристиан Клавье, Шанталь Лоби, Эри Абиттан, Меди Садун, Фредерик Шо, Нум Дьявара, Фредерик Бель, Джулия Пьятон, Эмили Кан, Элоди Фонтан

    Сюжет фильма:Главные герои фильма, мсье Верней и его жена — добропорядочная буржуазная французская супружеская пара, родители четырех красавиц-дочерей. Как известно, основная проблема всех подобных семей — выдать дочек замуж, чтобы не засиделись в девках. У семейства Верней такой проблемы нет. Три дочери уже нашли свое счастье, вот только мужья, по мнению родителей, подкачали: один — китаец, другой — араб, третий — еврей… Пришло время, и четвертая дочь сообщает радостную весть: она тоже выходит замуж! И ее жених… чернокожий.



    Снималось в: Франция/Les films du 24, TF1 Droits Audiovisuels, TF1 Films Production
    Время просмотра: 01:36:57
    Перевод текста:Профессиональный(полное дублирование)-Лицензия

    Файл
    Качество фильма:BDRip 1080p
    Тип видео: MKV
    Информация о видео: MPEG4/AVC, 1920х1040 (1.85:1), 8172 Кбит/сек, 24.000 кадра/сек
    Информация о звуке 1: AC3, 6 каналов, 384 Кбит/сек |Русский
    Информация о звуке 2: AC3, 6 каналов, 640 Кбит/сек |Французский
    Навигация по главам: Есть

    MediaInfo:
    Общее
    Уникальный идентификатор : 176527331726928299451767088625600336701 (0x84CDED6B3CD811438A3F003DAA32933D)
    Полное имя : Qu.est.ce.qu.on.a.fait.au.Bon.Dieu. (2014) BDRip 1080p.mkv
    Формат : Matroska
    Версия формата : Version 2
    Размер файла : 6,23 Гбайт
    Продолжительность : 1 ч. 36 м.
    Общий поток : 9195 Кбит/сек
    Название фильма : Quest.ce.qu.on.a.fait.au.Bon.Dieu. 2014
    Дата кодирования : UTC 2014-11-03 22:38:38
    Программа кодирования : mkvmerge v5.8.0 (;No Sleep/Pillow;) built on Sep 2 2012 15:37:04
    Библиотека кодирования : libebml v1.2.3 + libmatroska v1.3.0

    Видео
    Идентификатор : 1
    Формат : AVC
    Формат/Информация : Advanced Video Codec
    Профиль формата : High@L4.1
    Параметр CABAC формата : Да
    Параметр ReFrames формата : 4 кадра
    Идентификатор кодека : V_MPEG4/ISO/AVC
    Продолжительность : 1 ч. 36 м.
    Битрейт : 8172 Кбит/сек
    Ширина : 1920 пикселей
    Высота : 1040 пикселей
    Соотношение сторон : 1,85:1
    Режим частоты кадров : Постоянный
    Частота кадров : 24,000 кадра/сек
    Цветовое пространство : YUV
    Субдискретизация насыщенности : 4:2:0
    Битовая глубина : 8 бит
    Тип развёртки : Прогрессивная
    Бит/(Пиксели*Кадры) : 0.171
    Размер потока : 5,41 Гбайт (87%)
    Заголовок : SEiGHT
    Библиотека кодирования : x264 core 142 r2479 dd79a61
    Настройки программы : cabac=1/ref=4/deblock=1:0:0/analyse=0x3:0x113/me=umh/subme=8/psy=1/psy_rd=1.00:0.00/mixed_ref=1/me_range=16/chroma_me=1/trellis=1/8x8dct=1/cqm=0/deadzone=21,11/fast_pskip=1/chroma_qp_offset=-2/threads=12/lookahead_threads=2/sliced_threads=0/nr=0/decimate=1/interlaced=0/bluray_compat=0/constrained_intra=0/bframes=3/b_pyramid=2/b_adapt=2/b_bias=0/direct=3/weightb=1/open_gop=0/weightp=2/keyint=240/keyint_min=24/scenecut=40/intra_refresh=0/rc_lookahead=50/rc=2pass/mbtree=1/bitrate=8172/ratetol=1.0/qcomp=0.60/qpmin=0/qpmax=69/qpstep=4/cplxblur=20.0/qblur=0.5/ip_ratio=1.40/aq=1:1.00
    Язык : French
    Default : Да
    Forced : Нет

    Аудио #1
    Идентификатор : 2
    Формат : AC-3
    Формат/Информация : Audio Coding 3
    Расширение режима : CM (complete main)
    Параметр Endianness формата : Big
    Идентификатор кодека : A_AC3
    Продолжительность : 1 ч. 36 м.
    Вид битрейта : Постоянный
    Битрейт : 384 Кбит/сек
    Каналы : 6 каналов
    Расположение каналов : Front: L C R, Side: L R, LFE
    Частота : 48,0 КГц
    Битовая глубина : 16 бит
    Метод сжатия : С потерями
    Размер потока : 266 Мбайт (4%)
    Заголовок : AC3 5.1 | 384 Kbps | License
    Язык : Russian
    Default : Да
    Forced : Нет

    Аудио #2
    Идентификатор : 3
    Формат : AC-3
    Формат/Информация : Audio Coding 3
    Расширение режима : CM (complete main)
    Параметр Endianness формата : Big
    Идентификатор кодека : A_AC3
    Продолжительность : 1 ч. 36 м.
    Вид битрейта : Постоянный
    Битрейт : 640 Кбит/сек
    Каналы : 6 каналов
    Расположение каналов : Front: L C R, Side: L R, LFE
    Частота : 48,0 КГц
    Битовая глубина : 16 бит
    Метод сжатия : С потерями
    Размер потока : 444 Мбайт (7%)
    Заголовок : AC3 5.1 | 640 Kbps | Original
    Язык : French
    Default : Нет
    Forced : Нет

    Меню
    00:00:00.000 : en:00:00:00.000
    00:06:05.167 : en:00:06:05.167
    00:13:39.500 : en:00:13:39.500
    00:20:26.333 : en:00:20:26.333
    00:25:50.208 : en:00:25:50.208
    00:35:23.292 : en:00:35:23.292
    00:44:00.917 : en:00:44:00.917
    00:49:49.958 : en:00:49:49.958
    00:57:39.708 : en:00:57:39.708
    01:05:04.458 : en:01:05:04.458
    01:14:53.167 : en:01:14:53.167
    01:27:05.667 : en:01:27:05.667



    Релиз подготовил:
    Размер скачиваемого торрента: 6.23 GB (6686741402 Bytes)

    Безумная свадьба/Quest-ce quon a fait au Bon Dieu (2014) BDRip 1080p | Лицензия скачать через торрент бесплатно
    загрузка...
    Рейтинг →
     (голосов: 1, оценка 5/5, голосовать можно 1 раз )

    Другие торренты по теме:

  • Безумная свадьба / Quest-ce quon a fait au Bon Dieu (2014) HDRip | Чистый звук скачать через торрент бесплатно
  • Безумная свадьба / Quest-ce quon a fait au Bon Dieu
  • Безумная свадьба / Quest-ce quon a fait au Bon Dieu (2014) BDRip 720p | Лицензия
  • Безумная свадьба / Quest-ce quon a fait au Bon Dieu (2014) HDRip | Лицензия
  • Безумная свадьба / Quest-ce quon a fait au Bon Dieu (2014) HDRip от ivandubskoj | Лицензия скачать через торрент бесплатно
  • Безумная свадьба / Quest-ce quon a fait au Bon Dieu (2014) HDRip от Scarabey | Лицензия
  • Безумная свадьба / Quest-ce quon a fait au Bon Dieu (2014) HDRip от Scarabey | Лицензия
  • Безумная свадьба / Quest-ce quon a fait au Bon Dieu (2014) BDRip 720p от Leonardo and Scarabey | Лицензия


    • Комментарии (0):

      Информация

      Информация

        Посетители, находящиеся в группе Гости, не могут оставлять комментарии в данной новости.

        ↓ Меню



        ↓ Опрос

        А Вы добавили сайт в закладки?
        Да
        Не


        Top 10 за месяц (Фильмы)