.
Авторизация | Регистрация
Хочешь лучшие торренты? Добавь свой email!
Добавить
» » Муха / The Fly (1986) BDRip 720р скачать через торрент бесплатно




    Муха / The Fly (1986) BDRip 720р скачать через торрент бесплатно

    Опубликовал: Админ | Дата: 27-02-2015, 11:10 | Просмотров: 229

    Муха/The Fly (1986)

    Детально о кино
    Русское название:Муха
    Русское название в мировом прокате:The Fly
    Создали в:1986
    Категория жанра:ужасы, фантастика, драма
    Главный режиссер:Дэвид Кроненберг
    Актеры:Джефф Голдблюм, Джина Дэвис, Джон Гец, Джой Баушел, Лесли Карлсон, Джордж Чувало, Майкл Коупмен, Дэвид Кроненберг, Кэрол Лазар, Шон Хьюит
    Сюжет фильма:Талантливый и немного эксцентричный ученый Сет Брандл изучает проблемы телепортации. Начав с перемещения в пространстве неодушевленных предметов, гений от науки решает поэкспериментировать с живыми существами.
    Воодушевленный удачным результатом опыта по телепортации обезьяны, он сам хочет стать объектом эксперимента. Но по воле случая в стерильную камеру залетает муха. Это маленькое насекомое навсегда меняет жизнь Сета — он становится другим. Другим существом…

    Снималось в:USA, U.K., Canada
    Киностудия:SLM Production Group, Brooksfilms International
    Время просмотра:01:35:38
    Перевод текста:профессиональный (многоголосый закадровый), авторский (одноголосый закадровый)
    Субтитры:русские (лицензия), украинские (лицензия), английские
    Файл
    Кодек для видео:MPEG-4 AVC/H.264
    Качество фильма:BDRip 720p
    Информация о видео:1280 x 694 (1,85:1), 5 611 kbps, 23.976 fps, 0.263 b/px
    Информация о звуке:
    Информация о звуке # 1:АС3, 2 ch, 256 kbps, 48 000 Hz Многоголосый закадровый (R5) (лицензия)
    Информация о звуке # 2:АС3, 2 ch, 192 kbps, 48 000 Hz Многоголосый закадровый (РЕН-ТВ)
    Информация о звуке # 3:АС3, 2 ch, 256 kbps, 48 000 Hz Многоголосый закадровый (ОРТ)
    Информация о звуке # 4:DTS, 6 ch, 1510 kbps, 48 000 Hz Одноголосый закадровый (В.Горчаков)
    Информация о звуке # 5:DTS, 6 ch, 1510 kbps, 48 000 Hz Одноголосый закадровый (А.Михалев)
    Информация о звуке # 6:АС3, 2 ch, 192 kbps, 48 000 Hz Многоголосый закадровый (1+1) (Украинский)
    Информация о звуке # 7:DTS, 6 ch, 1509 kbps, 48 000 Hz Оригинальный
    Информация о звуке # 8:АС3, 2 ch, 192 kbps, 48 000 Hz Director Commentary
    MediaInfo
    Общее
    Уникальный идентификатор : 204489364483474277589825014020698357583 (0x99D73812CAC39837A7D5BF264CA53F4F)
    Полное имя : D:1986 Муха BDRip 720p.mkv
    Формат : Matroska
    Версия формата : Version 4/Version 2
    Размер файла : 7,65 Гбайт
    Продолжительность : 1 ч. 35 м.
    Общий поток : 11,5 Мбит/сек
    Название фильма : Муха/The Fly (1986) BDRip 720p
    Дата кодирования : UTC 2014-11-02 19:40:43
    Программа кодирования : mkvmerge v7.2.0 (;On Every Street;) 32bit built on Sep 13 2014 15:42:11
    Библиотека кодирования : libebml v1.3.0 + libmatroska v1.4.1
    DURATION : 01:30:35.560000000
    NUMBER_OF_FRAMES : 913
    NUMBER_OF_BYTES : 29930
    _STATISTICS_WRITING_APP : mkvmerge v7.2.0 (;On Every Street;) 32bit built on Sep 13 2014 15:42:11
    _STATISTICS_WRITING_DATE_UTC : 2014-11-02 19:40:43
    _STATISTICS_TAGS : BPS DURATION NUMBER_OF_FRAMES NUMBER_OF_BYTES
    Видео
    Идентификатор : 1
    Формат : AVC
    Формат/Информация : Advanced Video Codec
    Профиль формата : High@L4.1
    Параметр CABAC формата : Да
    Параметр ReFrames формата : 9 кадров
    Идентификатор кодека : V_MPEG4/ISO/AVC
    Продолжительность : 1 ч. 35 м.
    Битрейт : 5611 Кбит/сек
    Ширина : 1280 пикселей
    Высота : 694 пикселя
    Соотношение сторон : 1,85:1
    Режим частоты кадров : Постоянный
    Частота кадров : 23,976 кадра/сек
    Цветовое пространство : YUV
    Субдискретизация насыщенности : 4:2:0
    Битовая глубина : 8 бит
    Тип развёртки : Прогрессивная
    Бит/(Пиксели*Кадры) : 0.263
    Размер потока : 3,75 Гбайт (49%)
    Заголовок : 1986 Муха/The Fly BDRip 720p
    Библиотека кодирования : x264 core 118 r2085 8a62835
    Настройки программы : cabac=1/ref=9/deblock=1:-3:-3/analyse=0x3:0x113/me=umh/subme=10/psy=1/psy_rd=1.00:0.00/mixed_ref=1/me_range=48/chroma_me=1/trellis=2/8x8dct=1/cqm=0/deadzone=21,11/fast_pskip=0/chroma_qp_offset=-2/threads=6/sliced_threads=0/nr=0/decimate=1/interlaced=0/bluray_compat=0/constrained_intra=0/bframes=11/b_pyramid=2/b_adapt=2/b_bias=0/direct=2/weightb=1/open_gop=0/weightp=2/keyint=250/keyint_min=23/scenecut=40/intra_refresh=0/rc=crf/mbtree=0/crf=18.0/qcomp=0.60/qpmin=10/qpmax=51/qpstep=4/ip_ratio=1.40/pb_ratio=1.30/aq=1:0.80
    Язык : English
    Default : Да
    Forced : Нет
    DURATION : 01:35:38.733000000
    NUMBER_OF_FRAMES : 137592
    NUMBER_OF_BYTES : 4185261974
    _STATISTICS_WRITING_APP : mkvmerge v7.2.0 (;On Every Street;) 32bit built on Sep 13 2014 15:42:11
    _STATISTICS_WRITING_DATE_UTC : 2014-11-02 19:40:43
    _STATISTICS_TAGS : BPS DURATION NUMBER_OF_FRAMES NUMBER_OF_BYTES
    Аудио #1
    Идентификатор : 2
    Формат : AC-3
    Формат/Информация : Audio Coding 3
    Расширение режима : CM (complete main)
    Параметр Endianness формата : Big
    Идентификатор кодека : A_AC3
    Продолжительность : 1 ч. 35 м.
    Вид битрейта : Постоянный
    Битрейт : 256 Кбит/сек
    Каналы : 2 канала
    Расположение каналов : Front: L R
    Частота : 48,0 КГц
    Битовая глубина : 16 бит
    Метод сжатия : С потерями
    Размер потока : 175 Мбайт (2%)
    Заголовок : Многоголосый закадровый
    Язык : Russian
    Default : Да
    Forced : Нет
    Аудио #2
    Идентификатор : 3
    Формат : AC-3
    Формат/Информация : Audio Coding 3
    Расширение режима : CM (complete main)
    Параметр Endianness формата : Big
    Идентификатор кодека : A_AC3
    Продолжительность : 1 ч. 35 м.
    Вид битрейта : Постоянный
    Битрейт : 192 Кбит/сек
    Каналы : 2 канала
    Расположение каналов : Front: L R
    Частота : 48,0 КГц
    Битовая глубина : 16 бит
    Метод сжатия : С потерями
    Размер потока : 131 Мбайт (2%)
    Заголовок : Многоголосый закадровый
    Язык : Russian
    Default : Нет
    Forced : Нет
    Аудио #3
    Идентификатор : 4
    Формат : AC-3
    Формат/Информация : Audio Coding 3
    Расширение режима : CM (complete main)
    Параметр Endianness формата : Big
    Идентификатор кодека : A_AC3
    Продолжительность : 1 ч. 35 м.
    Вид битрейта : Постоянный
    Битрейт : 256 Кбит/сек
    Каналы : 2 канала
    Расположение каналов : Front: L R
    Частота : 48,0 КГц
    Битовая глубина : 16 бит
    Метод сжатия : С потерями
    Размер потока : 175 Мбайт (2%)
    Заголовок : Многоголосый закадровый
    Язык : Russian
    Default : Нет
    Forced : Нет
    Аудио #4
    Идентификатор : 5
    Формат : DTS
    Формат/Информация : Digital Theater Systems
    Режим : 16
    Параметр Endianness формата : Big
    Идентификатор кодека : A_DTS
    Продолжительность : 1 ч. 35 м.
    Вид битрейта : Постоянный
    Битрейт : 1510 Кбит/сек
    Каналы : 6 каналов
    Расположение каналов : Front: L C R, Side: L R, LFE
    Частота : 48,0 КГц
    Битовая глубина : 24 бит
    Метод сжатия : С потерями
    Задержка видео : 66 мс.
    Размер потока : 1,01 Гбайт (13%)
    Заголовок : Одноголосый закадровый
    Язык : Russian
    Default : Нет
    Forced : Нет
    Аудио #5
    Идентификатор : 6
    Формат : DTS
    Формат/Информация : Digital Theater Systems
    Режим : 16
    Параметр Endianness формата : Big
    Идентификатор кодека : A_DTS
    Продолжительность : 1 ч. 35 м.
    Вид битрейта : Постоянный
    Битрейт : 1510 Кбит/сек
    Каналы : 6 каналов
    Расположение каналов : Front: L C R, Side: L R, LFE
    Частота : 48,0 КГц
    Битовая глубина : 24 бит
    Метод сжатия : С потерями
    Задержка видео : 121 мс.
    Размер потока : 1,01 Гбайт (13%)
    Заголовок : Одноголосый закадровый
    Язык : Russian
    Default : Нет
    Forced : Нет
    Аудио #6
    Идентификатор : 7
    Формат : AC-3
    Формат/Информация : Audio Coding 3
    Расширение режима : CM (complete main)
    Параметр Endianness формата : Big
    Идентификатор кодека : A_AC3
    Продолжительность : 1 ч. 35 м.
    Вид битрейта : Постоянный
    Битрейт : 192 Кбит/сек
    Каналы : 2 канала
    Расположение каналов : Front: L R
    Частота : 48,0 КГц
    Битовая глубина : 16 бит
    Метод сжатия : С потерями
    Размер потока : 131 Мбайт (2%)
    Заголовок : Многоголосый закадровый
    Язык : Ukrainian
    Default : Нет
    Forced : Нет
    Аудио #7
    Идентификатор : 8
    Формат : DTS
    Формат/Информация : Digital Theater Systems
    Режим : 16
    Параметр Endianness формата : Big
    Идентификатор кодека : A_DTS
    Продолжительность : 1 ч. 35 м.
    Вид битрейта : Постоянный
    Битрейт : 1509 Кбит/сек
    Каналы : 6 каналов
    Расположение каналов : Front: L C R, Side: L R, LFE
    Частота : 48,0 КГц
    Битовая глубина : 24 бит
    Метод сжатия : С потерями
    Задержка видео : 121 мс.
    Размер потока : 1,01 Гбайт (13%)
    Заголовок : Оригинальный
    Язык : English
    Default : Нет
    Forced : Нет
    Аудио #8
    Идентификатор : 9
    Формат : AC-3
    Формат/Информация : Audio Coding 3
    Расширение режима : CM (complete main)
    Параметр Endianness формата : Big
    Идентификатор кодека : A_AC3
    Продолжительность : 1 ч. 35 м.
    Вид битрейта : Постоянный
    Битрейт : 192 Кбит/сек
    Каналы : 2 канала
    Расположение каналов : Front: L R
    Частота : 48,0 КГц
    Битовая глубина : 16 бит
    Метод сжатия : С потерями
    Размер потока : 131 Мбайт (2%)
    Заголовок : Director Commentary
    Язык : English
    Default : Нет
    Forced : Нет
    Текст #1
    Идентификатор : 10
    Формат : UTF-8
    Идентификатор кодека : S_TEXT/UTF8
    Идентификатор кодека/Информация : UTF-8 Plain Text
    Заголовок : Русские (лицензия)
    Язык : Russian
    Default : Нет
    Forced : Нет
    Текст #2
    Идентификатор : 11
    Формат : UTF-8
    Идентификатор кодека : S_TEXT/UTF8
    Идентификатор кодека/Информация : UTF-8 Plain Text
    Заголовок : Украинские (лицензия)
    Язык : Ukrainian
    Default : Нет
    Forced : Нет
    Текст #3
    Идентификатор : 12
    Формат : UTF-8
    Идентификатор кодека : S_TEXT/UTF8
    Идентификатор кодека/Информация : UTF-8 Plain Text
    Заголовок : English
    Язык : English
    Default : Нет
    Forced : Нет

    Скриншоты для ознакомления

    Размер скачиваемого торрента: 7.65 GB (8217787037 Bytes)

    Муха/The Fly (1986) BDRip 720р скачать через торрент бесплатно
    загрузка...
    Рейтинг →
     (голосов: 1, оценка 4/5, голосовать можно 1 раз )

    Другие торренты по теме:

  • Муха / The Fly (1986) BDRip-AVC от MediaClub | P, A
  • Муха / The Fly (1986) BDRip 1080p скачать через торрент бесплатно
  • Муха / The Fly (1986) HDRip-AVC от New-Team | P скачать через торрент бесплатно
  • Игорь Юрин - Муха
  • Муха - цокотуха (1960) DVDRip от MediaClub | КПК
  • Муха / The Fly (1986) DVD9 | P
  • Наталья Несс - Муха-самозванка и другие сказки (2011) MP3


    • Комментарии (0):

      Информация

      Информация

        Посетители, находящиеся в группе Гости, не могут оставлять комментарии в данной новости.

        ↓ Меню



        ↓ Опрос

        А Вы добавили сайт в закладки?
        Да
        Не


        Top 10 за месяц (Фильмы)