.
Авторизация | Регистрация
Хочешь лучшие торренты? Добавь свой email!
Добавить
» » Небеса реальны / Heaven Is for Real (2014) BDRip 720p | Лицензия скачать через торрент бесплатно




    Небеса реальны / Heaven Is for Real (2014) BDRip 720p | Лицензия скачать через торрент бесплатно

    Опубликовал: Админ | Дата: 27-02-2015, 11:10 | Просмотров: 187



    Детально о кино
    Русское название: Небеса реальны
    Русское название в мировом прокате: Heaven Is for Real
    Создали в: 2014
    Категория жанра:Драма
    Главный режиссер: Рэндалл Уоллас
    Актеры: Грег Киннер, Келли Райлли, Томас Хейден Чёрч, Коннор Корам, Лэйн Стайлз, Марго Мартиндейл, Джейкоб Варгас, Таня Ромеро, Дансо Гордон, Роб Моран

    Сюжет фильма:Главный герой меняет свое мировоззрение после того, как его 4-летний сын выходит из комы и утверждает, что был в раю. В доказательство он приводит факты из жизни их семьи, которые просто не мог знать.



    Снималось в: США, Roth Films, Screen Gems, TriStar Pictures
    Время просмотра: 01:39:30
    Перевод текста:Профессиональный(многоголосый, закадровый)-Лицензия

    Файл
    Качество фильма:BDRip 720p
    Тип видео: MKV
    Информация о видео: MPEG4/AVC, 1280х534 (2.40:1), 5789 Кбит/сек, 23,976 кадра/сек
    Информация о звуке 1: AC3, 6 каналов, 640 Кбит/сек |Русский
    Информация о звуке 2: AC3, 6 каналов, 640 Кбит/сек |Английский
    Субтитры: Русские, английские (Full, SDH)
    Навигация по главам: Есть

    MediaInfo:
    Общее
    Уникальный идентификатор : 171218383600708892631579122960009534178 (0x80CF76113E65A667A15B4F2399A01AE2)
    Полное имя : Heaven is for Real. (2014) BDRip 720p.mkv
    Формат : Matroska
    Версия формата : Version 2
    Размер файла : 4,91 Гбайт
    Продолжительность : 1 ч. 39 м.
    Общий поток : 7063 Кбит/сек
    Название фильма : Heaven is for Real. 2014
    Дата кодирования : UTC 2014-11-04 14:28:45
    Программа кодирования : mkvmerge v5.8.0 (;No Sleep/Pillow;) built on Sep 2 2012 15:37:04
    Библиотека кодирования : libebml v1.2.3 + libmatroska v1.3.0

    Видео
    Идентификатор : 1
    Формат : AVC
    Формат/Информация : Advanced Video Codec
    Профиль формата : High@L4.1
    Параметр CABAC формата : Да
    Параметр ReFrames формата : 11 кадров
    Идентификатор кодека : V_MPEG4/ISO/AVC
    Продолжительность : 1 ч. 39 м.
    Битрейт : 5789 Кбит/сек
    Ширина : 1280 пикселей
    Высота : 534 пикселя
    Соотношение сторон : 2,40:1
    Режим частоты кадров : Постоянный
    Частота кадров : 23,976 кадра/сек
    Цветовое пространство : YUV
    Субдискретизация насыщенности : 4:2:0
    Битовая глубина : 8 бит
    Тип развёртки : Прогрессивная
    Бит/(Пиксели*Кадры) : 0.353
    Размер потока : 3,92 Гбайт (80%)
    Заголовок : CHD
    Библиотека кодирования : x264 core 142 r2431 ac76440
    Настройки программы : cabac=1/ref=11/deblock=1:-3:-3/analyse=0x3:0x113/me=umh/subme=10/psy=1/psy_rd=1.00:0.05/mixed_ref=1/me_range=32/chroma_me=1/trellis=2/8x8dct=1/cqm=0/deadzone=21,11/fast_pskip=0/chroma_qp_offset=-2/threads=18/lookahead_threads=1/sliced_threads=0/nr=0/decimate=1/interlaced=0/bluray_compat=0/constrained_intra=0/bframes=4/b_pyramid=2/b_adapt=2/b_bias=0/direct=3/weightb=1/open_gop=0/weightp=2/keyint=250/keyint_min=23/scenecut=40/intra_refresh=0/rc=2pass/mbtree=0/bitrate=5789/ratetol=1.0/qcomp=0.70/qpmin=0/qpmax=69/qpstep=4/cplxblur=20.0/qblur=0.5/ip_ratio=1.40/pb_ratio=1.30/aq=2:0.90
    Язык : English
    Default : Да
    Forced : Нет

    Аудио #1
    Идентификатор : 2
    Формат : AC-3
    Формат/Информация : Audio Coding 3
    Расширение режима : CM (complete main)
    Параметр Endianness формата : Big
    Идентификатор кодека : A_AC3
    Продолжительность : 1 ч. 39 м.
    Вид битрейта : Постоянный
    Битрейт : 640 Кбит/сек
    Каналы : 6 каналов
    Расположение каналов : Front: L C R, Side: L R, LFE
    Частота : 48,0 КГц
    Битовая глубина : 16 бит
    Метод сжатия : С потерями
    Размер потока : 455 Мбайт (9%)
    Заголовок : License
    Язык : Russian
    Default : Да
    Forced : Нет

    Аудио #2
    Идентификатор : 3
    Формат : AC-3
    Формат/Информация : Audio Coding 3
    Расширение режима : CM (complete main)
    Параметр Endianness формата : Big
    Идентификатор кодека : A_AC3
    Продолжительность : 1 ч. 39 м.
    Вид битрейта : Постоянный
    Битрейт : 640 Кбит/сек
    Каналы : 6 каналов
    Расположение каналов : Front: L C R, Side: L R, LFE
    Частота : 48,0 КГц
    Битовая глубина : 16 бит
    Метод сжатия : С потерями
    Размер потока : 455 Мбайт (9%)
    Заголовок : Original
    Язык : English
    Default : Нет
    Forced : Нет

    Текст #1
    Идентификатор : 4
    Формат : UTF-8
    Идентификатор кодека : S_TEXT/UTF8
    Идентификатор кодека/Информация : UTF-8 Plain Text
    Заголовок : Full
    Язык : Russian
    Default : Нет
    Forced : Нет

    Текст #2
    Идентификатор : 5
    Формат : UTF-8
    Идентификатор кодека : S_TEXT/UTF8
    Идентификатор кодека/Информация : UTF-8 Plain Text
    Заголовок : Full
    Язык : English
    Default : Нет
    Forced : Нет

    Текст #3
    Идентификатор : 6
    Формат : UTF-8
    Идентификатор кодека : S_TEXT/UTF8
    Идентификатор кодека/Информация : UTF-8 Plain Text
    Заголовок : SDH
    Язык : English
    Default : Нет
    Forced : Нет

    Меню
    00:00:00.000 : en:00:00:00.000
    00:04:57.255 : en:00:04:57.255
    00:11:09.669 : en:00:11:09.669
    00:17:20.081 : en:00:17:20.081
    00:22:07.618 : en:00:22:07.618
    00:26:00.100 : en:00:26:00.100
    00:33:09.487 : en:00:33:09.487
    00:40:09.449 : en:00:40:09.449
    00:44:37.842 : en:00:44:37.842
    00:49:48.736 : en:00:49:48.736
    00:56:35.309 : en:00:56:35.309
    01:03:18.086 : en:01:03:18.086
    01:06:33.448 : en:01:06:33.448
    01:13:07.967 : en:01:13:07.967
    01:16:29.585 : en:01:16:29.585
    01:23:51.485 : en:01:23:51.485



    Релиз подготовил:
    Размер скачиваемого торрента: 4.91 GB (5270510121 Bytes)

    Небеса реальны/Heaven Is for Real (2014) BDRip 720p | Лицензия скачать через торрент бесплатно
    загрузка...
    Рейтинг →
     (голосов: 1, оценка 5/5, голосовать можно 1 раз )

    Другие торренты по теме:

  • Небеса реальны / Heaven Is for Real (2014) BDRip 1080p by msltel | L1 скачать через торрент бесплатно
  • Небеса реальны / Heaven Is for Real
  • Небеса реальны / Heaven Is for Real (2014) BDRip 720p скачать через торрент бесплатно
  • Небеса реальны / Heaven Is for Real (2014) BDRip-AVC от New-Team | P | Лицензия
  • Небеса реальны / Heaven Is for Real (2014) BDRip-AVC от New-Team | P | Лицензия
  • Небеса реальны / Heaven Is for Real (2014) HDRip от Scarabey | Р | Лицензия
  • Небеса реальны / Heaven Is for Real (2014) HDRip от Scarabey | Р | Лицензия скачать через торрент бесплатно
  • Небеса реальны / Heaven Is for Real (2014) BDRip-AVC от HELLYWOOD | Лицензия


    • Комментарии (0):

      Информация

      Информация

        Посетители, находящиеся в группе Гости, не могут оставлять комментарии в данной новости.

        ↓ Меню



        ↓ Опрос

        А Вы добавили сайт в закладки?
        Да
        Не


        Top 10 за месяц (Фильмы)