.
Авторизация | Регистрация
Хочешь лучшие торренты? Добавь свой email!
Добавить
» » Девятые врата / The Ninth Gate (1999) BDRip 720p скачать через торрент бесплатно




    Девятые врата / The Ninth Gate (1999) BDRip 720p скачать через торрент бесплатно

    Опубликовал: Админ | Дата: 27-02-2015, 11:10 | Просмотров: 165

    Девятые врата/The Ninth Gate (1999)

    Детально о кино
    Русское название:Девятые врата
    Русское название в мировом прокате:The Ninth Gate
    Создали в:1999
    Категория жанра:триллер, детектив
    Главный режиссер:Роман Полански
    Актеры:Джонни Депп, Фрэнк Ланджелла, Лена Олин, Эмманюэль Сенье, Барбара Джеффорд, Джек Тейлор, Хосе Лопес Родеро, Тони Амони, Джеймс Руссо, Уилли Холт
    Сюжет фильма:Дин Корсо, один из лучших специалистов по поиску, оценке и скупке раритетных изданий, принимает от владельца крупнейшей в мире библиотеки оккультных книг необычный, но крайне выгодный заказ: определить подлинность венца собрания, фолианта XVII века под названием Девять врат в царство призраков, с помощью которого, по преданию, можно вызвать самого Люцифера. Ему предстоит полное опасностей и тайн путешествие по Европе.
    Но только тогда, когда на пути к разгадке тайны Девятых врат начинают попадаться трупы тех, с кем Дин Корсо встречался совсем недавно, ему открывается зловещая правда. Он понимает, что в этой дьявольской игре на кон поставлена не только жизнь его, но и душа…

    Снималось в:Spain, France, USA
    Киностудия:Artisan Entertainment, R.P. Productions, Orly Films
    Время просмотра:02:13:15
    Перевод текста:профессиональный (полное дублирование), профессиональный (многоголосый закадровый)
    Субтитры:русские, английские
    Файл
    Кодек для видео:MPEG-4 AVC/H.264
    Качество фильма:BDRip 720p
    Информация о видео:1280 x 544 (2,35:1), 4 314 kbps, 23.976 fps, 0.258 b/px
    Информация о звуке:
    Информация о звуке # 1:АС3, 6 ch, 384 kbps, 48 000 Hz Дублированный
    Информация о звуке # 2:DTS, 6 ch, 1510 kbps, 48 000 Hz Многоголосый закадровый
    Информация о звуке # 3:DTS, 6 ch, 1509 kbps, 48 000 Hz Оригинальный
    Информация о звуке # 4:АС3, 2 ch, 224 kbps, 48 000 Hz Commentary by Roman Polanski
    MediaInfo
    Общее
    Уникальный идентификатор : 186819962804460130235099765351914415894 (0x8C8C374F8A5F2D2F8C6D3C9D3BCC2716)
    Полное имя : E:Video1999 Девятые врата BDRip 720p.mkv
    Формат : Matroska
    Версия формата : Version 4/Version 2
    Размер файла : 7,39 Гбайт
    Продолжительность : 2 ч. 13 м.
    Общий поток : 7945 Кбит/сек
    Название фильма : Девятые врата/The Ninth Gate (1999) BDRip 720p
    Дата кодирования : UTC 2014-11-03 19:24:22
    Программа кодирования : mkvmerge v7.2.0 (;On Every Street;) 32bit built on Sep 13 2014 15:42:11
    Библиотека кодирования : libebml v1.3.0 + libmatroska v1.4.1
    DURATION : 02:07:29.890000000
    NUMBER_OF_FRAMES : 1032
    NUMBER_OF_BYTES : 36797
    _STATISTICS_WRITING_APP : mkvmerge v7.2.0 (;On Every Street;) 32bit built on Sep 13 2014 15:42:11
    _STATISTICS_WRITING_DATE_UTC : 2014-11-03 19:24:22
    _STATISTICS_TAGS : BPS DURATION NUMBER_OF_FRAMES NUMBER_OF_BYTES
    Видео
    Идентификатор : 1
    Формат : AVC
    Формат/Информация : Advanced Video Codec
    Профиль формата : High@L4.1
    Параметр CABAC формата : Да
    Параметр ReFrames формата : 9 кадров
    Идентификатор кодека : V_MPEG4/ISO/AVC
    Продолжительность : 2 ч. 13 м.
    Битрейт : 4314 Кбит/сек
    Ширина : 1280 пикселей
    Высота : 544 пикселя
    Соотношение сторон : 2,35:1
    Режим частоты кадров : Постоянный
    Частота кадров : 23,976 кадра/сек
    Цветовое пространство : YUV
    Субдискретизация насыщенности : 4:2:0
    Битовая глубина : 8 бит
    Тип развёртки : Прогрессивная
    Бит/(Пиксели*Кадры) : 0.258
    Размер потока : 3,87 Гбайт (52%)
    Заголовок : 1999 Девятые врата/The Ninth Gate BDRip 720p
    Библиотека кодирования : x264 core 72 r1232 c8edc12
    Настройки программы : cabac=1/ref=9/deblock=1:-1:-2/analyse=0x3:0x113/me=umh/subme=9/psy=1/psy_rd=1.0:0.0/mixed_ref=1/me_range=32/chroma_me=1/trellis=2/8x8dct=1/cqm=0/deadzone=21,11/chroma_qp_offset=-2/threads=12/nr=0/decimate=0/mbaff=0/bframes=3/b_pyramid=0/b_adapt=2/b_bias=0/direct=3/wpredb=1/keyint=250/keyint_min=25/scenecut=40/rc=2pass/mbtree=0/bitrate=4314/ratetol=1.0/qcomp=0.50/qpmin=10/qpmax=51/qpstep=4/cplxblur=20.0/qblur=0.5/ip_ratio=1.40/pb_ratio=1.30/aq=1:1.00
    Язык : English
    Default : Да
    Forced : Нет
    DURATION : 02:13:14.792000000
    NUMBER_OF_FRAMES : 191683
    NUMBER_OF_BYTES : 4311291847
    _STATISTICS_WRITING_APP : mkvmerge v7.2.0 (;On Every Street;) 32bit built on Sep 13 2014 15:42:11
    _STATISTICS_WRITING_DATE_UTC : 2014-11-03 19:24:22
    _STATISTICS_TAGS : BPS DURATION NUMBER_OF_FRAMES NUMBER_OF_BYTES
    Аудио #1
    Идентификатор : 2
    Формат : AC-3
    Формат/Информация : Audio Coding 3
    Расширение режима : CM (complete main)
    Параметр Endianness формата : Big
    Идентификатор кодека : A_AC3
    Продолжительность : 2 ч. 13 м.
    Вид битрейта : Постоянный
    Битрейт : 384 Кбит/сек
    Каналы : 6 каналов
    Расположение каналов : Front: L C R, Side: L R, LFE
    Частота : 48,0 КГц
    Битовая глубина : 16 бит
    Метод сжатия : С потерями
    Размер потока : 366 Мбайт (5%)
    Заголовок : Дублированный
    Язык : Russian
    Default : Да
    Forced : Нет
    Аудио #2
    Идентификатор : 3
    Формат : DTS
    Формат/Информация : Digital Theater Systems
    Режим : 16
    Параметр Endianness формата : Big
    Идентификатор кодека : A_DTS
    Продолжительность : 2 ч. 13 м.
    Вид битрейта : Постоянный
    Битрейт : 1510 Кбит/сек
    Каналы : 6 каналов
    Расположение каналов : Front: L C R, Side: L R, LFE
    Частота : 48,0 КГц
    Битовая глубина : 24 бит
    Метод сжатия : С потерями
    Размер потока : 1,41 Гбайт (19%)
    Заголовок : Многоголосый закадровый
    Язык : Russian
    Default : Нет
    Forced : Нет
    Аудио #3
    Идентификатор : 4
    Формат : DTS
    Формат/Информация : Digital Theater Systems
    Режим : 16
    Параметр Endianness формата : Big
    Идентификатор кодека : A_DTS
    Продолжительность : 2 ч. 13 м.
    Вид битрейта : Постоянный
    Битрейт : 1509 Кбит/сек
    Каналы : 6 каналов
    Расположение каналов : Front: L C R, Side: L R, LFE
    Частота : 48,0 КГц
    Битовая глубина : 24 бит
    Метод сжатия : С потерями
    Размер потока : 1,40 Гбайт (19%)
    Заголовок : Орининальный
    Язык : English
    Default : Нет
    Forced : Нет
    Аудио #4
    Идентификатор : 5
    Формат : AC-3
    Формат/Информация : Audio Coding 3
    Профиль формата : Dolby Digital
    Расширение режима : CM (complete main)
    Параметр Endianness формата : Big
    Идентификатор кодека : A_AC3
    Продолжительность : 2 ч. 13 м.
    Вид битрейта : Постоянный
    Битрейт : 224 Кбит/сек
    Каналы : 2 канала
    Расположение каналов : Front: L R
    Частота : 48,0 КГц
    Битовая глубина : 16 бит
    Метод сжатия : С потерями
    Размер потока : 213 Мбайт (3%)
    Заголовок : Commentary by Roman Polanski
    Язык : English
    Default : Нет
    Forced : Нет
    Текст #1
    Идентификатор : 6
    Формат : UTF-8
    Идентификатор кодека : S_TEXT/UTF8
    Идентификатор кодека/Информация : UTF-8 Plain Text
    Заголовок : Русские
    Язык : Russian
    Default : Нет
    Forced : Нет
    Текст #2
    Идентификатор : 7
    Формат : UTF-8
    Идентификатор кодека : S_TEXT/UTF8
    Идентификатор кодека/Информация : UTF-8 Plain Text
    Заголовок : English
    Язык : English
    Default : Нет
    Forced : Нет

    Скриншоты для ознакомления

    Размер скачиваемого торрента: 7.39 GB (7939492143 Bytes)

    Девятые врата/The Ninth Gate (1999) BDRip 720p скачать через торрент бесплатно
    загрузка...
    Рейтинг →
     (голосов: 1, оценка 3/5, голосовать можно 1 раз )

    Другие торренты по теме:

  • Девятые врата / The Ninth Gate (1999) BDRip от HQCLUB
  • Девятые врата / The Ninth Gate (1999) BDRip-AVC от Rulya74 скачать через торрент бесплатно
  • Девятые врата / The Ninth Gate (1999) BDRip-AVC от MediaClub | D. P, A скачать через торрент бесплатно


    • Комментарии (0):

      Информация

      Информация

        Посетители, находящиеся в группе Гости, не могут оставлять комментарии в данной новости.

        ↓ Меню



        ↓ Опрос

        А Вы добавили сайт в закладки?
        Да
        Не


        Top 10 за месяц (Фильмы)