.
Авторизация | Регистрация
Хочешь лучшие торренты? Добавь свой email!
Добавить
» » Хеллбой: Дилогия / Hellboy: Dilogy (2004-2008) BDRip 720p скачать через торрент бесплатно




    Хеллбой: Дилогия / Hellboy: Dilogy (2004-2008) BDRip 720p скачать через торрент бесплатно

    Опубликовал: Админ | Дата: 27-02-2015, 11:10 | Просмотров: 208

    Хеллбой: Герой из пекла/Hellboy (2004) Director;s Cut

    Детально о кино
    Русское название:Хеллбой: Герой из пекла
    Русское название в мировом прокате:Hellboy
    Создали в:2004
    Категория жанра:фантастика, фэнтези, боевик, приключения
    Главный режиссер:Гильермо дель Торо
    Актеры:Рон Перлман, Джон Хёрт, Сэльма Блэр, Руперт Эванс, Карел Роден, Джеффри Тэмбор, Даг Джонс, Брайан Стил, Ладислав Беран, Бидди Ходсон
    Сюжет фильма:Вторая мировая война. Нацисты терпят одно сокрушительное поражение за другим. В результате исследования оккультных ритуалов в супер-секретной лаборатории ученым, работающим на фашистский режим, удается поднять из небытия Демона Ада, который должен помочь переломить ход войны.
    Но в научную лабораторию тайно проникает отряд союзников и поворачивает это мистическое и грозное оружие против нацистов. Однако никто из участников эксперимента и не предполагает, что врата потустороннего мира после открытия окажутся неподвластны людям, и им придется столкнуться с существами еще более опасными и непредсказуемыми, чем Демон Ада…

    Снималось в:USA
    Киностудия:Revolution Studios, Lawrence Gordon Productions, Starlite Films
    Время просмотра:02:12:29
    Перевод текста:профессиональный (полное дублирование) , профессиональный (многоголосый закадровый), авторский (одноголосый закадровый)
    Субтитры:русские, английские
    Файл
    Кодек для видео:MPEG-4 AVC/H.264
    Качество фильма:BDRip 720p
    Информация о видео:1280 x 694 (1,85:1), 9 500 kbps, 23.976 fps, 0.446 b/px
    Информация о звуке:
    Информация о звуке # 1:АС3, 6 ch, 640 kbps, 48 000 Hz Дублированный (Blu-ray CEE со вставками многоголосого (Киномания))
    Информация о звуке # 2:АС3, 6 ch, 384 kbps, 48 000 Hz Многоголосый закадровый (Киномания)
    Информация о звуке # 3:АС3, 6 ch, 384 kbps, 48 000 Hz Одноголосый закадровый (А.Гаврилов)
    Информация о звуке # 4:DTS, 6 ch, 755 kbps, 48 000 Hz Одноголосый закадровый (Ю.Живов)
    Информация о звуке # 5:АС3, 6 ch, 448 kbps, 48 000 Hz Одноголосый закадровый (Б.Кутафин)
    Информация о звуке # 6:DTS, 6 ch, 1509 kbps, 48 000 Hz Орининальный
    MediaInfo
    Общее
    Уникальный идентификатор : 240796939010181358524169249089802339528 (0xB527CDB48327DC9688B5084B1DAA04C8)
    Полное имя : E:VideoХеллбой. Дилогия BDRip 720p2004 Хеллбой. Герой из пекла Director;s Cut BDRip 720p.mkv
    Формат : Matroska
    Версия формата : Version 4/Version 2
    Размер файла : 12,6 Гбайт
    Продолжительность : 2 ч. 12 м.
    Общий поток : 13,6 Мбит/сек
    Название фильма : Хеллбой: Герой из пекла/Hellboy Director;s Cut (2004) BDRip 720p
    Дата кодирования : UTC 2014-11-04 13:03:46
    Программа кодирования : mkvmerge v7.2.0 (;On Every Street;) 32bit built on Sep 13 2014 15:42:11
    Библиотека кодирования : libebml v1.3.0 + libmatroska v1.4.1
    DURATION : 02:05:23.266000000
    NUMBER_OF_FRAMES : 1183
    NUMBER_OF_BYTES : 33434
    _STATISTICS_WRITING_APP : mkvmerge v7.2.0 (;On Every Street;) 32bit built on Sep 13 2014 15:42:11
    _STATISTICS_WRITING_DATE_UTC : 2014-11-04 13:03:46
    _STATISTICS_TAGS : BPS DURATION NUMBER_OF_FRAMES NUMBER_OF_BYTES
    Видео
    Идентификатор : 1
    Формат : AVC
    Формат/Информация : Advanced Video Codec
    Профиль формата : High@L4.1
    Параметр CABAC формата : Да
    Параметр ReFrames формата : 9 кадров
    Идентификатор кодека : V_MPEG4/ISO/AVC
    Продолжительность : 2 ч. 12 м.
    Битрейт : 9500 Кбит/сек
    Ширина : 1280 пикселей
    Высота : 694 пикселя
    Соотношение сторон : 1,85:1
    Режим частоты кадров : Постоянный
    Частота кадров : 23,976 кадра/сек
    Цветовое пространство : YUV
    Субдискретизация насыщенности : 4:2:0
    Битовая глубина : 8 бит
    Тип развёртки : Прогрессивная
    Бит/(Пиксели*Кадры) : 0.446
    Размер потока : 8,54 Гбайт (68%)
    Заголовок : 2004 Хеллбой: Герой из пекла/Hellboy Director;s Cut BDRip 720p
    Библиотека кодирования : x264 core 125 r2208kMod d9d2288
    Настройки программы : cabac=1/ref=9/deblock=1:-2:-2/analyse=0x3:0x113/me=tesa/subme=11/psy=1/fade_compensate=0.90/psy_rd=1.05:0.00/mixed_ref=1/me_range=24/chroma_me=1/trellis=2/8x8dct=1/cqm=2/deadzone=21,11/fast_pskip=0/chroma_qp_offset=-2/threads=12/lookahead_threads=2/sliced_threads=0/nr=0/decimate=1/interlaced=0/bluray_compat=0/constrained_intra=0/bframes=6/b_pyramid=2/b_adapt=2/b_bias=0/direct=3/weightb=1/open_gop=0/weightp=2/keyint=250/keyint_min=23/scenecut=40/intra_refresh=0/rc_lookahead=60/rc=2pass/mbtree=1/bitrate=9500/ratetol=1.0/qcomp=0.70/qpmin=0/qpmax=69/qpstep=4/cplxblur=20.0/qblur=0.5/ip_ratio=1.40/aq=1:0.70/zones=1495,2480,b=1.2/85875,86119,b=1.3/86620,87630,b=1.3/89127,90954,b=1.3/98564,98797,b=1.3
    Язык : English
    Default : Да
    Forced : Нет
    Коэффициенты матрицы : BT.709
    DURATION : 02:12:28.900000000
    NUMBER_OF_FRAMES : 190583
    NUMBER_OF_BYTES : 9435522881
    _STATISTICS_WRITING_APP : mkvmerge v7.2.0 (;On Every Street;) 32bit built on Sep 13 2014 15:42:11
    _STATISTICS_WRITING_DATE_UTC : 2014-11-04 13:03:46
    _STATISTICS_TAGS : BPS DURATION NUMBER_OF_FRAMES NUMBER_OF_BYTES
    Аудио #1
    Идентификатор : 2
    Формат : AC-3
    Формат/Информация : Audio Coding 3
    Расширение режима : CM (complete main)
    Параметр Endianness формата : Big
    Идентификатор кодека : A_AC3
    Продолжительность : 2 ч. 12 м.
    Вид битрейта : Постоянный
    Битрейт : 640 Кбит/сек
    Каналы : 6 каналов
    Расположение каналов : Front: L C R, Side: L R, LFE
    Частота : 48,0 КГц
    Битовая глубина : 16 бит
    Метод сжатия : С потерями
    Размер потока : 606 Мбайт (5%)
    Заголовок : Дублированный
    Язык : Russian
    Default : Да
    Forced : Нет
    Аудио #2
    Идентификатор : 3
    Формат : AC-3
    Формат/Информация : Audio Coding 3
    Расширение режима : CM (complete main)
    Параметр Endianness формата : Big
    Идентификатор кодека : A_AC3
    Продолжительность : 2 ч. 12 м.
    Вид битрейта : Постоянный
    Битрейт : 384 Кбит/сек
    Каналы : 6 каналов
    Расположение каналов : Front: L C R, Side: L R, LFE
    Частота : 48,0 КГц
    Битовая глубина : 16 бит
    Метод сжатия : С потерями
    Размер потока : 364 Мбайт (3%)
    Заголовок : Многоголосый закадровый
    Язык : Russian
    Default : Нет
    Forced : Нет
    Аудио #3
    Идентификатор : 4
    Формат : AC-3
    Формат/Информация : Audio Coding 3
    Расширение режима : CM (complete main)
    Параметр Endianness формата : Big
    Идентификатор кодека : A_AC3
    Продолжительность : 2 ч. 12 м.
    Вид битрейта : Постоянный
    Битрейт : 384 Кбит/сек
    Каналы : 6 каналов
    Расположение каналов : Front: L C R, Side: L R, LFE
    Частота : 48,0 КГц
    Битовая глубина : 16 бит
    Метод сжатия : С потерями
    Размер потока : 364 Мбайт (3%)
    Заголовок : Одноголосый закадровый
    Язык : Russian
    Default : Нет
    Forced : Нет
    Аудио #4
    Идентификатор : 5
    Формат : DTS
    Формат/Информация : Digital Theater Systems
    Режим : 16
    Параметр Endianness формата : Big
    Идентификатор кодека : A_DTS
    Продолжительность : 2 ч. 12 м.
    Вид битрейта : Постоянный
    Битрейт : 755 Кбит/сек
    Каналы : 6 каналов
    Расположение каналов : Front: L C R, Side: L R, LFE
    Частота : 48,0 КГц
    Битовая глубина : 24 бит
    Метод сжатия : С потерями
    Размер потока : 715 Мбайт (6%)
    Заголовок : Одноголосый закадровый
    Язык : Russian
    Default : Нет
    Forced : Нет
    Аудио #5
    Идентификатор : 6
    Формат : AC-3
    Формат/Информация : Audio Coding 3
    Расширение режима : CM (complete main)
    Параметр Endianness формата : Big
    Идентификатор кодека : A_AC3
    Продолжительность : 2 ч. 12 м.
    Вид битрейта : Постоянный
    Битрейт : 448 Кбит/сек
    Каналы : 6 каналов
    Расположение каналов : Front: L C R, Side: L R, LFE
    Частота : 48,0 КГц
    Битовая глубина : 16 бит
    Метод сжатия : С потерями
    Размер потока : 425 Мбайт (3%)
    Заголовок : Одноголосый закадровый
    Язык : Russian
    Default : Нет
    Forced : Нет
    Аудио #6
    Идентификатор : 7
    Формат : DTS
    Формат/Информация : Digital Theater Systems
    Режим : 16
    Параметр Endianness формата : Big
    Идентификатор кодека : A_DTS
    Продолжительность : 2 ч. 12 м.
    Вид битрейта : Постоянный
    Битрейт : 1509 Кбит/сек
    Каналы : 6 каналов
    Расположение каналов : Front: L C R, Side: L R, LFE
    Частота : 48,0 КГц
    Битовая глубина : 16 бит
    Метод сжатия : С потерями
    Размер потока : 1,40 Гбайт (11%)
    Заголовок : Орининальный
    Язык : English
    Default : Нет
    Forced : Нет
    Текст #1
    Идентификатор : 8
    Формат : UTF-8
    Идентификатор кодека : S_TEXT/UTF8
    Идентификатор кодека/Информация : UTF-8 Plain Text
    Заголовок : Русские
    Язык : Russian
    Default : Нет
    Forced : Нет
    Текст #2
    Идентификатор : 9
    Формат : UTF-8
    Идентификатор кодека : S_TEXT/UTF8
    Идентификатор кодека/Информация : UTF-8 Plain Text
    Заголовок : English
    Язык : English
    Default : Нет
    Forced : Нет
    Меню
    00:00:00.000 : en:Start
    00:06:48.950 : en:Closing the Portal
    00:14:44.383 : en:Resurrection
    00:24:02.858 : en:The Rest of the Family
    00:32:42.502 : en:Westside Highway
    00:43:36.823 : en:The Seed of Destruction
    00:51:51.859 : en:Inferno
    00:58:06.066 : en:Underwater Chamber
    01:03:13.581 : en:Doing His Job
    01:08:30.982 : en:Man Down
    01:18:00.634 : en:On a Mission
    01:27:03.009 : en:Something;s Wrong
    01:38:20.436 : en:Something Big
    01:45:13.807 : en:Egg Chamber
    01:50:08.143 : en:The Right Hand of Doom
    01:58:40.572 : en:How Big Could it Be?

    Скриншоты для ознакомления

    Хеллбой II: Золотая армия/Hellboy II: The Golden Army (2008)

    Детально о кино
    Русское название:Хеллбой II: Золотая армия
    Русское название в мировом прокате:Hellboy II: The Golden Army
    Создали в:2008
    Категория жанра:фантастика, фэнтези, боевик, приключения
    Главный режиссер:Гильермо дель Торо
    Актеры:Рон Перлман, Сэльма Блэр, Даг Джонс, Джон Александр, Джеймс Додд, Сет МакФарлейн, Люк Госс, Анна Уолтон, Джеффри Тэмбор, Джон Хёрт
    Сюжет фильма:После того как древнее перемирие между человечеством и тайным миром было нарушено, на Земле вот-вот разверзнется ад. Безжалостный лидер, вхожий в оба мира, бросает вызов своей крови и пробуждает на свет неодолимую армию чудовищ.
    Настало время самому Хэллбою сразиться с беспощадным диктатором и его воинами. Вместе со своей пополняющей ряды командой Бюро Паранормальных Исследований и Развития он будет бороздить границы двух миров — нашего и скрытого, где самые невероятные существа обретают плоть. Хэллбою, порожденному обоими мирами, но не принадлежащему ни одному из них, предстоит выбирать между жизнью, которую он знает, и неизвестностью новой судьбы...

    Снималось в:USA, Germany
    Киностудия:Universal Pictures, Dark Horse Entertainment, Internationale Filmproduktion Eagle
    Время просмотра:01:59:41
    Перевод текста:профессиональный (полное дублирование) , профессиональный (многоголосый закадровый), авторский (одноголосый закадровый)
    Субтитры:русские, английские
    Файл
    Кодек для видео:MPEG-4 AVC/H.264
    Качество фильма:BDRip 720p
    Информация о видео:1280 x 694 (1,85:1), 6 877 kbps, 23.976 fps, 0.323 b/px
    Информация о звуке:
    Информация о звуке # 1:DTS, 6 ch, 768 kbps, 48 000 Hz Дублированный (Blu-ray CEE)
    Информация о звуке # 2:DTS, 6 ch, 1510 kbps, 48 000 Hz Многоголосый закадровый (Кравец)
    Информация о звуке # 3:DTS, 6 ch, 755 kbps, 48 000 Hz Одноголосый закадровый (А.Гаврилов)
    Информация о звуке # 4:AC3, 6 ch, 384 kbps, 48 000 Hz Одноголосый закадровый (Ю.Живов)
    Информация о звуке # 5:АС3, 6 ch, 448 kbps, 48 000 Hz Одноголосый закадровый (В.Королёв)
    Информация о звуке # 6:DTS, 6 ch, 1509 kbps, 48 000 Hz Орининальный
    MediaInfo
    Общее
    Уникальный идентификатор : 175837433321180613215442876652020970596 (0x84490ECD24CE56CFB84BA5F3F9223464)
    Полное имя : E:VideoХеллбой. Дилогия BDRip 720p2008 Хеллбой II. Золотая армия BDRip 720p.mkv
    Формат : Matroska
    Версия формата : Version 4/Version 2
    Размер файла : 10,4 Гбайт
    Продолжительность : 1 ч. 59 м.
    Общий поток : 12,5 Мбит/сек
    Название фильма : Хеллбой II: Золотая армия/Hellboy II: The Golden Army (2008) BDRip 720p
    Дата кодирования : UTC 2014-11-04 13:27:51
    Программа кодирования : mkvmerge v7.2.0 (;On Every Street;) 32bit built on Sep 13 2014 15:42:11
    Библиотека кодирования : libebml v1.3.0 + libmatroska v1.4.1
    DURATION : 01:50:33.175000000
    NUMBER_OF_FRAMES : 1115
    NUMBER_OF_BYTES : 40394
    _STATISTICS_WRITING_APP : mkvmerge v7.2.0 (;On Every Street;) 32bit built on Sep 13 2014 15:42:11
    _STATISTICS_WRITING_DATE_UTC : 2014-11-04 13:27:51
    _STATISTICS_TAGS : BPS DURATION NUMBER_OF_FRAMES NUMBER_OF_BYTES
    Видео
    Идентификатор : 1
    Формат : AVC
    Формат/Информация : Advanced Video Codec
    Профиль формата : High@L4.1
    Параметр CABAC формата : Да
    Параметр ReFrames формата : 9 кадров
    Идентификатор кодека : V_MPEG4/ISO/AVC
    Продолжительность : 1 ч. 59 м.
    Битрейт : 6877 Кбит/сек
    Ширина : 1280 пикселей
    Высота : 694 пикселя
    Соотношение сторон : 1,85:1
    Режим частоты кадров : Постоянный
    Частота кадров : 23,976 кадра/сек
    Цветовое пространство : YUV
    Субдискретизация насыщенности : 4:2:0
    Битовая глубина : 8 бит
    Тип развёртки : Прогрессивная
    Бит/(Пиксели*Кадры) : 0.323
    Размер потока : 5,75 Гбайт (55%)
    Заголовок : 2008 Хеллбой II: Золотая армия/Hellboy II: The Golden Army BDRip 720p
    Библиотека кодирования : x264 core 142 r2431+42 c69a006 tMod 8-bit@4:2:0 X86_64
    Настройки программы : cabac=1/ref=9/deblock=1:-2:-2/analyse=0x3:0x133/me=umh/subme=11/psy=1/fade_compensate=0.00/psy_rd=1.00:0.00/mixed_ref=1/me_range=32/chroma_me=1/trellis=2/8x8dct=1/cqm=0/deadzone=21,11/fast_pskip=1/chroma_qp_offset=-2/threads=12/lookahead_threads=2/sliced_threads=0/nr=0/decimate=1/interlaced=0/bluray_compat=0/constrained_intra=0/fgo=0/bframes=9/b_pyramid=2/b_adapt=2/b_bias=0/direct=1/weightb=1/open_gop=0/weightp=2/keyint=250/keyint_min=23/scenecut=40/intra_refresh=0/rc_lookahead=60/rc=crf/mbtree=0/crf=18.0000/qcomp=0.60/qpmin=0:0:0/qpmax=69:69:69/qpstep=4/vbv_maxrate=62500/vbv_bufsize=78125/crf_max=0.0/nal_hrd=none/filler=0/ip_ratio=1.40/pb_ratio=1.30/aq=4:0.80/aq-sensitivity=11.00/aq-factor=1.00:1.00:1.00/aq2=1:0.60/aq2-sensitivity=9.00/aq2-factor=1.00:1.00:1.00/aq3=1:0.60:0.60:0.60:0.60:0.60:0.60:0.60:0.60/aq3-sensitivity=10.00/aq3-factor=1.00:1.00:1.00:1.00:1.00:1.00/aq3-boundary=192:64:24
    Язык : English
    Default : Да
    Forced : Нет
    Основные цвета : BT.709
    Характеристики трансфера : BT.709
    Коэффициенты матрицы : BT.709
    Аудио #1
    Идентификатор : 2
    Формат : DTS
    Формат/Информация : Digital Theater Systems
    Режим : 16
    Параметр Endianness формата : Big
    Идентификатор кодека : A_DTS
    Продолжительность : 1 ч. 59 м.
    Вид битрейта : Постоянный
    Битрейт : 768 Кбит/сек
    Каналы : 6 каналов
    Расположение каналов : Front: L C R, Side: L R, LFE
    Частота : 48,0 КГц
    Битовая глубина : 24 бит
    Метод сжатия : С потерями
    Размер потока : 657 Мбайт (6%)
    Заголовок : Дублированный
    Язык : Russian
    Default : Да
    Forced : Нет
    Аудио #2
    Идентификатор : 3
    Формат : DTS
    Формат/Информация : Digital Theater Systems
    Режим : 16
    Параметр Endianness формата : Big
    Идентификатор кодека : A_DTS
    Продолжительность : 1 ч. 59 м.
    Вид битрейта : Постоянный
    Битрейт : 1510 Кбит/сек
    Каналы : 6 каналов
    Расположение каналов : Front: L C R, Side: L R, LFE
    Частота : 48,0 КГц
    Битовая глубина : 24 бит
    Метод сжатия : С потерями
    Размер потока : 1,26 Гбайт (12%)
    Заголовок : Многоголосый закадровый
    Язык : Russian
    Default : Нет
    Forced : Нет
    Аудио #3
    Идентификатор : 4
    Формат : DTS
    Формат/Информация : Digital Theater Systems
    Режим : 16
    Параметр Endianness формата : Big
    Идентификатор кодека : A_DTS
    Продолжительность : 1 ч. 59 м.
    Вид битрейта : Постоянный
    Битрейт : 755 Кбит/сек
    Каналы : 6 каналов
    Расположение каналов : Front: L C R, Side: L R, LFE
    Частота : 48,0 КГц
    Битовая глубина : 24 бит
    Метод сжатия : С потерями
    Размер потока : 646 Мбайт (6%)
    Заголовок : Одноголосый закадровый
    Язык : Russian
    Default : Нет
    Forced : Нет
    Аудио #4
    Идентификатор : 5
    Формат : AC-3
    Формат/Информация : Audio Coding 3
    Расширение режима : CM (complete main)
    Параметр Endianness формата : Big
    Идентификатор кодека : A_AC3
    Продолжительность : 1 ч. 59 м.
    Вид битрейта : Постоянный
    Битрейт : 384 Кбит/сек
    Каналы : 6 каналов
    Расположение каналов : Front: L C R, Side: L R, LFE
    Частота : 48,0 КГц
    Битовая глубина : 16 бит
    Метод сжатия : С потерями
    Размер потока : 329 Мбайт (3%)
    Заголовок : Одноголосый закадровый
    Язык : Russian
    Default : Нет
    Forced : Нет
    Аудио #5
    Идентификатор : 6
    Формат : AC-3
    Формат/Информация : Audio Coding 3
    Расширение режима : CM (complete main)
    Параметр Endianness формата : Big
    Идентификатор кодека : A_AC3
    Продолжительность : 1 ч. 59 м.
    Вид битрейта : Постоянный
    Битрейт : 448 Кбит/сек
    Каналы : 6 каналов
    Расположение каналов : Front: L C R, Side: L R, LFE
    Частота : 48,0 КГц
    Битовая глубина : 16 бит
    Метод сжатия : С потерями
    Размер потока : 384 Мбайт (4%)
    Заголовок : Одноголосый закадровый
    Язык : Russian
    Default : Нет
    Forced : Нет
    Аудио #6
    Идентификатор : 7
    Формат : DTS
    Формат/Информация : Digital Theater Systems
    Режим : 16
    Параметр Endianness формата : Big
    Идентификатор кодека : A_DTS
    Продолжительность : 1 ч. 59 м.
    Вид битрейта : Постоянный
    Битрейт : 1509 Кбит/сек
    Каналы : 6 каналов
    Расположение каналов : Front: L C R, Side: L R, LFE
    Частота : 48,0 КГц
    Битовая глубина : 24 бит
    Метод сжатия : С потерями
    Размер потока : 1,26 Гбайт (12%)
    Заголовок : Орининальный
    Язык : English
    Default : Нет
    Forced : Нет
    Текст #1
    Идентификатор : 8
    Формат : UTF-8
    Идентификатор кодека : S_TEXT/UTF8
    Идентификатор кодека/Информация : UTF-8 Plain Text
    Заголовок : Русские
    Язык : Russian
    Default : Нет
    Forced : Нет
    Текст #2
    Идентификатор : 9
    Формат : UTF-8
    Идентификатор кодека : S_TEXT/UTF8
    Идентификатор кодека/Информация : UTF-8 Plain Text
    Заголовок : English
    Язык : English
    Default : Нет
    Forced : Нет
    Меню
    00:00:00.000 : en:Ancient Truce
    00:07:00.044 : en:Fear the Dark
    00:11:48.874 : en:Top Secret
    00:17:46.440 : en:World, Here I Come
    00:26:36.970 : en:You Had No Right
    00:29:57.921 : en:The Good, the Bad the Worst
    00:34:45.875 : en:A Nice Open Face
    00:38:34.979 : en:The True Nature of Things
    00:44:28.374 : en:The Troll Market
    00:48:22.399 : en:Delicate Situation
    00:55:07.262 : en:A Forest God
    00:59:15.760 : en:One of Us
    01:05:38.434 : en:Fatal Flaw
    01:12:58.123 : en:Fallen for the Princess
    01:16:10.065 : en:He;s Here
    01:21:59.915 : en:Running Out of Time
    01:26:19.507 : en:Reason to Live
    01:35:34.395 : en:The Army Awakens
    01:42:08.789 : en:A Challenge
    01:51:53.915 : en:End Titles

    Скриншоты для ознакомления

    Размер скачиваемого торрента: 23.05 GB (24751890739 Bytes)

    Хеллбой: Дилогия/Hellboy: Dilogy (2004-2008) BDRip 720p скачать через торрент бесплатно
    загрузка...
    Рейтинг →
     (голосов: 1, оценка 5/5, голосовать можно 1 раз )

    Другие торренты по теме:

  • Хеллбой: Дилогия / Hellboy: Dilogy (2004-2008) BDRip | D
  • Хеллбой: Дилогия / Hellboy: Dilogy (2004-2008) BDRip 1080p от R.G. HD-Films | 60 fps | D
  • Хеллбой: Дилогия / Hellboy: Dilogy (2004-2008) BDRip 720p от NoLimits-Team


    • Комментарии (0):

      Информация

      Информация

        Посетители, находящиеся в группе Гости, не могут оставлять комментарии в данной новости.

        ↓ Меню



        ↓ Опрос

        А Вы добавили сайт в закладки?
        Да
        Не


        Top 10 за месяц (Фильмы)