.
Авторизация | Регистрация
Хочешь лучшие торренты? Добавь свой email!
Добавить
» » Форсаж. Коллекция / Fast Furious. The Collection (2001-2013) BDRip 720p скачать торрент бесплатно




    Форсаж. Коллекция / Fast Furious. The Collection (2001-2013) BDRip 720p скачать торрент бесплатно

    Опубликовал: Админ | Дата: 27-02-2015, 11:10 | Просмотров: 198

    Форсаж/The Fast and the Furious (2001)

    Детально о кино
    Русское название:Форсаж
    Русское название в мировом прокате:The Fast and the Furious
    Создали в:2001
    Категория жанра:боевик, триллер, криминал
    Главный режиссер:Роб Коэн
    Актеры:Пол Уокер, Вин Дизель, Мишель Родригес, Джордана Брюстер, Мэтт Шульце, Рик Юн, Чэд Линдберг, Джонни Стронг, Тед Левайн, Том Бэрри
    Сюжет фильма:Его зовут Брайан, и он — фанатик турбин и нитроускорителей. Его цель — быть принятым в автобанду легендарного Доминика Торетто, чемпиона опасных и незаконных уличных гонок. Но это лишь часть правды… Брайан также полицейский, имеющий задание войти в доверие к Торетто, подозреваемому в причастности к дерзким грабежам трейлеров, совершенным прямо с колес.
    Но чем больше доверяет нахальному новичку харизматичный Доминик, тем больше проникается герой идеалами ангелов дорог. И тем меньше ему хочется выполнять свою миссию. И вот, наступает момент, когда Брайану придется выбирать между дружбой и долгом. И выбирать на скорости в 200 километров в час…

    Снималось в:USA, Germany
    Киностудия:Universal Pictures, Original Film, Mediastream Film GmbH Co. Productions KG
    Время просмотра:01:46:57
    Перевод текста:профессиональный (полное дублирование), профессиональный (многоголосый закадровый), профессиональный (двуголосый закадровый), авторский (одноголосый закадровый)
    Субтитры:русские, английские
    Файл
    Кодек для видео:MPEG-4 AVC/H.264
    Качество фильма:BDRip 720p
    Информация о видео:1280 x 544, (2,35:1), 6 489 kbps, 23.976 fps, 0.389 b/px
    Информация о звуке:
    Информация о звуке # 1:АС3, 2 ch, 192 kbps, 48 000 Hz Дублированный (Ист-Вест)
    Информация о звуке # 2:DTS, 6 ch, 768 kbps, 48 000 Hz Многоголосый закадровый (Blu-ray CEE)
    Информация о звуке # 3:DTS, 6 ch, 1510 kbps, 48 000 Hz Двуголосый закадровый (П.Гланц и И.Королёва)
    Информация о звуке # 4:DTS, 6 ch, 1509 kbps, 48 000 Hz Одноголосый закадровый (А.Гаврилов)
    Информация о звуке # 5:DTS, 6 ch, 755 kbps, 48 000 Hz Одноголосый закадровый (Ю.Живов)
    Информация о звуке # 6:DTS, 6 ch, 755 kbps, 48 000 Hz Одноголосый закадровый (С.Визгунов)
    Информация о звуке # 7:АС3, 2 ch, 192 kbps, 48 000 Hz Многоголосый закадровый (Так Треба Продакшн) (Украинский)
    Информация о звуке # 8:АС3, 2 ch, 192 kbps, 48 000 Hz Многоголосый закадровый (ТВ+/ICTV) (Украинский)
    Информация о звуке # 9:DTS, 6 ch, 1509 kbps, 48 000 Hz Оригинальный
    MediaInfo
    Общее
    Уникальный идентификатор : 205661133337109492395154296610147685570 (0x9AB8E4BD026C216FBD8C281E65B254C2)
    Полное имя : E:Video-TorrentФорсаж. Коллекция BDRip 720p2001 Форсаж BDRip 720p.mkv
    Формат : Matroska
    Версия формата : Version 4/Version 2
    Размер файла : 10,6 Гбайт
    Продолжительность : 1 ч. 46 м.
    Общий поток : 14,2 Мбит/сек
    Название фильма : Форсаж/The Fast and the Furious (2001) BDRip 720p
    Дата кодирования : UTC 2014-11-01 09:30:17
    Программа кодирования : mkvmerge v7.2.0 (;On Every Street;) 32bit built on Sep 13 2014 15:42:11
    Библиотека кодирования : libebml v1.3.0 + libmatroska v1.4.1
    _STATISTICS_WRITING_APP : mkvmerge v7.2.0 (;On Every Street;) 32bit built on Sep 13 2014 15:42:11
    _STATISTICS_WRITING_DATE_UTC : 2014-11-01 09:30:17
    _STATISTICS_TAGS : BPS DURATION NUMBER_OF_FRAMES NUMBER_OF_BYTES
    DURATION : 01:38:12.226000000
    NUMBER_OF_FRAMES : 811
    NUMBER_OF_BYTES : 31786
    Видео
    Идентификатор : 1
    Формат : AVC
    Формат/Информация : Advanced Video Codec
    Профиль формата : High@L4.1
    Параметр CABAC формата : Да
    Параметр ReFrames формата : 12 кадров
    Идентификатор кодека : V_MPEG4/ISO/AVC
    Продолжительность : 1 ч. 46 м.
    Битрейт : 6488 Кбит/сек
    Ширина : 1280 пикселей
    Высота : 544 пикселя
    Соотношение сторон : 2,35:1
    Режим частоты кадров : Постоянный
    Частота кадров : 23,976 кадра/сек
    Цветовое пространство : YUV
    Субдискретизация насыщенности : 4:2:0
    Битовая глубина : 8 бит
    Тип развёртки : Прогрессивная
    Бит/(Пиксели*Кадры) : 0.389
    Размер потока : 4,85 Гбайт (46%)
    Заголовок : 2001 Форсаж/The Fast and the Furious BDRip 720p
    Библиотека кодирования : x264 core 140 r2377 1ca7bb9
    Настройки программы : cabac=1/ref=12/deblock=1:-3:-3/analyse=0x3:0x113/me=umh/subme=9/psy=1/psy_rd=1.00:0.00/mixed_ref=1/me_range=16/chroma_me=1/trellis=2/8x8dct=1/cqm=1/deadzone=21,11/fast_pskip=0/chroma_qp_offset=-1/threads=8/lookahead_threads=1/sliced_threads=0/nr=0/decimate=1/interlaced=0/bluray_compat=0/constrained_intra=0/bframes=8/b_pyramid=2/b_adapt=2/b_bias=0/direct=3/weightb=1/open_gop=0/weightp=2/keyint=230/keyint_min=23/scenecut=40/intra_refresh=0/rc_lookahead=40/rc=crf/mbtree=0/crf=17.7/qcomp=0.60/qpmin=10/qpmax=69/qpstep=4/vbv_maxrate=62500/vbv_bufsize=78125/crf_max=0.0/nal_hrd=none/filler=0/ip_ratio=1.00/pb_ratio=1.00/aq=2:0.70
    Язык : English
    Default : Да
    Forced : Нет
    _STATISTICS_WRITING_APP : mkvmerge v7.2.0 (;On Every Street;) 32bit built on Sep 13 2014 15:42:11
    _STATISTICS_WRITING_DATE_UTC : 2014-11-01 09:30:17
    _STATISTICS_TAGS : BPS DURATION NUMBER_OF_FRAMES NUMBER_OF_BYTES
    DURATION : 01:46:57.411000000
    NUMBER_OF_FRAMES : 153864
    NUMBER_OF_BYTES : 5427966682
    Аудио #1
    Идентификатор : 2
    Формат : AC-3
    Формат/Информация : Audio Coding 3
    Расширение режима : CM (complete main)
    Параметр Endianness формата : Big
    Идентификатор кодека : A_AC3
    Продолжительность : 1 ч. 46 м.
    Вид битрейта : Постоянный
    Битрейт : 192 Кбит/сек
    Каналы : 2 канала
    Расположение каналов : Front: L R
    Частота : 48,0 КГц
    Битовая глубина : 16 бит
    Метод сжатия : С потерями
    Размер потока : 147 Мбайт (1%)
    Заголовок : Дублированный
    Язык : Russian
    Default : Да
    Forced : Нет
    Аудио #2
    Идентификатор : 3
    Формат : DTS
    Формат/Информация : Digital Theater Systems
    Режим : 16
    Параметр Endianness формата : Big
    Идентификатор кодека : A_DTS
    Продолжительность : 1 ч. 46 м.
    Вид битрейта : Постоянный
    Битрейт : 768 Кбит/сек
    Каналы : 6 каналов
    Расположение каналов : Front: L C R, Side: L R, LFE
    Частота : 48,0 КГц
    Битовая глубина : 24 бит
    Метод сжатия : С потерями
    Размер потока : 588 Мбайт (5%)
    Заголовок : Многоголосый закадровый
    Язык : Russian
    Default : Нет
    Forced : Нет
    Аудио #3
    Идентификатор : 4
    Формат : DTS
    Формат/Информация : Digital Theater Systems
    Режим : 16
    Параметр Endianness формата : Big
    Идентификатор кодека : A_DTS
    Продолжительность : 1 ч. 46 м.
    Вид битрейта : Постоянный
    Битрейт : 1510 Кбит/сек
    Каналы : 6 каналов
    Расположение каналов : Front: L C R, Side: L R, LFE
    Частота : 48,0 КГц
    Битовая глубина : 24 бит
    Метод сжатия : С потерями
    Размер потока : 1,13 Гбайт (11%)
    Заголовок : Двуголосый закадровый
    Язык : Russian
    Default : Нет
    Forced : Нет
    Аудио #4
    Идентификатор : 5
    Формат : DTS
    Формат/Информация : Digital Theater Systems
    Режим : 16
    Параметр Endianness формата : Big
    Идентификатор кодека : A_DTS
    Продолжительность : 1 ч. 46 м.
    Вид битрейта : Постоянный
    Битрейт : 1509 Кбит/сек
    Каналы : 6 каналов
    Расположение каналов : Front: L C R, Side: L R, LFE
    Частота : 48,0 КГц
    Битовая глубина : 24 бит
    Метод сжатия : С потерями
    Размер потока : 1,13 Гбайт (11%)
    Заголовок : Одноголосый закадровый
    Язык : Russian
    Default : Нет
    Forced : Нет
    Аудио #5
    Идентификатор : 6
    Формат : DTS
    Формат/Информация : Digital Theater Systems
    Режим : 16
    Параметр Endianness формата : Big
    Идентификатор кодека : A_DTS
    Продолжительность : 1 ч. 46 м.
    Вид битрейта : Постоянный
    Битрейт : 755 Кбит/сек
    Каналы : 6 каналов
    Расположение каналов : Front: L C R, Side: L R, LFE
    Частота : 48,0 КГц
    Битовая глубина : 24 бит
    Метод сжатия : С потерями
    Размер потока : 577 Мбайт (5%)
    Заголовок : Одноголосый закадровый
    Язык : Russian
    Default : Нет
    Forced : Нет
    Аудио #6
    Идентификатор : 7
    Формат : DTS
    Формат/Информация : Digital Theater Systems
    Режим : 16
    Параметр Endianness формата : Big
    Идентификатор кодека : A_DTS
    Продолжительность : 1 ч. 46 м.
    Вид битрейта : Постоянный
    Битрейт : 755 Кбит/сек
    Каналы : 6 каналов
    Расположение каналов : Front: L C R, Side: L R, LFE
    Частота : 48,0 КГц
    Битовая глубина : 24 бит
    Метод сжатия : С потерями
    Размер потока : 577 Мбайт (5%)
    Заголовок : Одноголосый закадровый
    Язык : Russian
    Default : Нет
    Forced : Нет
    Аудио #7
    Идентификатор : 8
    Формат : AC-3
    Формат/Информация : Audio Coding 3
    Расширение режима : CM (complete main)
    Параметр Endianness формата : Big
    Идентификатор кодека : A_AC3
    Продолжительность : 1 ч. 46 м.
    Вид битрейта : Постоянный
    Битрейт : 192 Кбит/сек
    Каналы : 2 канала
    Расположение каналов : Front: L R
    Частота : 48,0 КГц
    Битовая глубина : 16 бит
    Метод сжатия : С потерями
    Размер потока : 147 Мбайт (1%)
    Заголовок : Многоголосый закадровый
    Язык : Ukrainian
    Default : Нет
    Forced : Нет
    Аудио #8
    Идентификатор : 9
    Формат : AC-3
    Формат/Информация : Audio Coding 3
    Расширение режима : CM (complete main)
    Параметр Endianness формата : Big
    Идентификатор кодека : A_AC3
    Продолжительность : 1 ч. 46 м.
    Вид битрейта : Постоянный
    Битрейт : 192 Кбит/сек
    Каналы : 2 канала
    Расположение каналов : Front: L R
    Частота : 48,0 КГц
    Битовая глубина : 16 бит
    Метод сжатия : С потерями
    Размер потока : 147 Мбайт (1%)
    Заголовок : Многоголосый закадровый
    Язык : Ukrainian
    Default : Нет
    Forced : Нет
    Аудио #9
    Идентификатор : 10
    Формат : DTS
    Формат/Информация : Digital Theater Systems
    Режим : 16
    Параметр Endianness формата : Big
    Идентификатор кодека : A_DTS
    Продолжительность : 1 ч. 46 м.
    Вид битрейта : Постоянный
    Битрейт : 1509 Кбит/сек
    Каналы : 6 каналов
    Расположение каналов : Front: L C R, Side: L R, LFE
    Частота : 48,0 КГц
    Битовая глубина : 24 бит
    Метод сжатия : С потерями
    Размер потока : 1,13 Гбайт (11%)
    Заголовок : Оригинальный
    Язык : English
    Default : Нет
    Forced : Нет
    Текст #1
    Идентификатор : 11
    Формат : UTF-8
    Идентификатор кодека : S_TEXT/UTF8
    Идентификатор кодека/Информация : UTF-8 Plain Text
    Заголовок : Русские
    Язык : Russian
    Default : Нет
    Forced : Нет
    Текст #2
    Идентификатор : 12
    Формат : UTF-8
    Идентификатор кодека : S_TEXT/UTF8
    Идентификатор кодека/Информация : UTF-8 Plain Text
    Заголовок : English
    Язык : English
    Default : Нет
    Forced : Нет
    Меню
    00:00:00.000 : en:The Hijackers
    00:02:56.885 : en:Enter the Eclipse
    00:10:20.244 : en:The Snowmans;s Bet
    00:15:07.531 : en:NOS Fest
    00:26:40.473 : en:Big Trouble in Little Saigon
    00:29:59.214 : en:Right to Party
    00:34:42.872 : en:A Double Life
    00:38:08.494 : en:A Ten-Second Car
    00:44:56.402 : en:Undercover Blues
    00:55:26.489 : en:A Quarter Mile at a Time
    00:58:40.433 : en:Undercover Love
    01:01:45.743 : en:The Takedown of Johnny Tran
    01:09:25.119 : en:Race Wars
    01:12:02.026 : en:Jesse Throws Down the Pink
    01:15:23.685 : en:Mia;s Choice
    01:20:44.172 : en:Hijackers; Hell
    01:29:59.811 : en:Fury in Echo Park
    01:34:58.317 : en:Race Against the Train
    01:38:05.462 : en:Honor
    01:39:57.992 : en:End Titles

    Скриншоты для ознакомления

    Двойной форсаж/2 Fast 2 Furious (2003)

    Детально о кино
    Русское название:Двойной форсаж
    Русское название в мировом прокате:2 Fast 2 Furious
    Создали в:2003
    Категория жанра:боевик, триллер, криминал
    Главный режиссер:Джон Синглтон
    Актеры:Пол Уокер, Тайриз Гибсон, Ева Мендес, Коул Хаузер, Лудакрис, Том Бэрри, Джеймс Римар, Девон Аоки, Мэтт Галлини, Роберто Санс Санчес
    Сюжет фильма:Бывший полицейский Брайан О`Коннер вместе с напарником Романом Пирсом собираются перевезти крупную сумму грязных денег известного мафиози Картера Верона в качестве его подручных. Но на самом деле эта работа является только прикрытием для Брайана, который вместе с тайным агентом Моникой Фуэнтес должны уличить изворотливого преступника…

    Снималось в:USA, Germany
    Киностудия:Universal Pictures, Original Film, Mikona Productions GmbH Co. KG
    Время просмотра:01:47:36
    Перевод текста:профессиональный (полное дублирование), профессиональный (многоголосый закадровый), профессиональный (двуголосый закадровый), авторский (одноголосый закадровый)
    Субтитры:русские, английские
    Файл
    Кодек для видео:MPEG-4 AVC/H.264
    Качество фильма:BDRip 720p
    Информация о видео:1280 x 544, (2,35:1), 8 128 kbps, 23.976 fps, 0.487 b/px
    Информация о звуке:
    Информация о звуке # 1:DTS, 6 ch, 768 kbps, 48 000 Hz Дублированный (Blu-ray CEE)
    Информация о звуке # 2:АС3, 6 ch, 448 kbps, 48 000 Hz Многоголосый закадровый
    Информация о звуке # 3:DTS, 6 ch, 1510 kbps, 48 000 Hz Двуголосый закадровый
    Информация о звуке # 4:DTS, 6 ch, 1509 kbps, 48 000 Hz Одноголосый закадровый
    Информация о звуке # 5:АС3, 2 ch, 192 kbps, 48 000 Hz Многоголосый закадровый (ICTV) (Украинский)
    Информация о звуке # 6:DTS, 6 ch, 1509 kbps, 48 000 Hz Оригинальный
    MediaInfo
    Общее
    Уникальный идентификатор : 172611161888613782170057074159204357877 (0x81DBB356B3015FA9B3573A97F362D6F5)
    Полное имя : E:Video-TorrentФорсаж. Коллекция BDRip 720p2003 Двойной форсаж BDRip 720p.mkv
    Формат : Matroska
    Версия формата : Version 4/Version 2
    Размер файла : 10,8 Гбайт
    Продолжительность : 1 ч. 47 м.
    Общий поток : 14,4 Мбит/сек
    Название фильма : Двойной форсаж/2 Fast 2 Furious (2003) BDRip 720p
    Дата кодирования : UTC 2014-11-01 09:59:10
    Программа кодирования : mkvmerge v7.2.0 (;On Every Street;) 32bit built on Sep 13 2014 15:42:11
    Библиотека кодирования : libebml v1.3.0 + libmatroska v1.4.1
    _STATISTICS_WRITING_APP : mkvmerge v7.2.0 (;On Every Street;) 32bit built on Sep 13 2014 15:42:11
    _STATISTICS_WRITING_DATE_UTC : 2014-11-01 09:59:10
    _STATISTICS_TAGS : BPS DURATION NUMBER_OF_FRAMES NUMBER_OF_BYTES
    DURATION : 01:39:12.650000000
    NUMBER_OF_FRAMES : 1070
    NUMBER_OF_BYTES : 34750
    Видео
    Идентификатор : 1
    Формат : AVC
    Формат/Информация : Advanced Video Codec
    Профиль формата : High@L4.1
    Параметр CABAC формата : Да
    Параметр ReFrames формата : 12 кадров
    Идентификатор кодека : V_MPEG4/ISO/AVC
    Продолжительность : 1 ч. 47 м.
    Битрейт : 8136 Кбит/сек
    Ширина : 1280 пикселей
    Высота : 544 пикселя
    Соотношение сторон : 2,35:1
    Режим частоты кадров : Постоянный
    Частота кадров : 23,976 кадра/сек
    Цветовое пространство : YUV
    Субдискретизация насыщенности : 4:2:0
    Битовая глубина : 8 бит
    Тип развёртки : Прогрессивная
    Бит/(Пиксели*Кадры) : 0.487
    Размер потока : 6,11 Гбайт (57%)
    Заголовок : 2003 Двойной форсаж/2 Fast 2 Furious BDRip 720p
    Библиотека кодирования : x264 core 140 r2377 1ca7bb9
    Настройки программы : cabac=1/ref=12/deblock=1:-3:-3/analyse=0x3:0x113/me=umh/subme=9/psy=1/psy_rd=1.00:0.00/mixed_ref=1/me_range=48/chroma_me=1/trellis=2/8x8dct=1/cqm=1/deadzone=21,11/fast_pskip=0/chroma_qp_offset=-1/threads=8/lookahead_threads=1/sliced_threads=0/nr=0/decimate=1/interlaced=0/bluray_compat=0/constrained_intra=0/bframes=7/b_pyramid=2/b_adapt=2/b_bias=0/direct=3/weightb=1/open_gop=0/weightp=2/keyint=230/keyint_min=23/scenecut=40/intra_refresh=0/rc_lookahead=40/rc=crf/mbtree=0/crf=17.9/qcomp=0.70/qpmin=2/qpmax=69/qpstep=4/vbv_maxrate=62500/vbv_bufsize=78125/crf_max=0.0/nal_hrd=none/filler=0/ip_ratio=1.00/pb_ratio=1.00/aq=2:0.70
    Язык : English
    Default : Да
    Forced : Нет
    _STATISTICS_WRITING_APP : mkvmerge v7.2.0 (;On Every Street;) 32bit built on Sep 13 2014 15:42:11
    _STATISTICS_WRITING_DATE_UTC : 2014-11-01 09:59:10
    _STATISTICS_TAGS : BPS DURATION NUMBER_OF_FRAMES NUMBER_OF_BYTES
    DURATION : 01:47:35.866000000
    NUMBER_OF_FRAMES : 154786
    NUMBER_OF_BYTES : 6791756041
    Аудио #1
    Идентификатор : 2
    Формат : DTS
    Формат/Информация : Digital Theater Systems
    Режим : 16
    Параметр Endianness формата : Big
    Идентификатор кодека : A_DTS
    Продолжительность : 1 ч. 47 м.
    Вид битрейта : Постоянный
    Битрейт : 768 Кбит/сек
    Каналы : 6 каналов
    Расположение каналов : Front: L C R, Side: L R, LFE
    Частота : 48,0 КГц
    Битовая глубина : 24 бит
    Метод сжатия : С потерями
    Размер потока : 591 Мбайт (5%)
    Заголовок : Дублированный
    Язык : Russian
    Default : Да
    Forced : Нет
    Аудио #2
    Идентификатор : 3
    Формат : AC-3
    Формат/Информация : Audio Coding 3
    Расширение режима : CM (complete main)
    Параметр Endianness формата : Big
    Идентификатор кодека : A_AC3
    Продолжительность : 1 ч. 47 м.
    Вид битрейта : Постоянный
    Битрейт : 448 Кбит/сек
    Каналы : 6 каналов
    Расположение каналов : Front: L C R, Side: L R, LFE
    Частота : 48,0 КГц
    Битовая глубина : 16 бит
    Метод сжатия : С потерями
    Размер потока : 345 Мбайт (3%)
    Заголовок : Многоголосый закадровый
    Язык : Russian
    Default : Нет
    Forced : Нет
    Аудио #3
    Идентификатор : 4
    Формат : DTS
    Формат/Информация : Digital Theater Systems
    Режим : 16
    Параметр Endianness формата : Big
    Идентификатор кодека : A_DTS
    Продолжительность : 1 ч. 47 м.
    Вид битрейта : Постоянный
    Битрейт : 1510 Кбит/сек
    Каналы : 6 каналов
    Расположение каналов : Front: L C R, Side: L R, LFE
    Частота : 48,0 КГц
    Битовая глубина : 24 бит
    Метод сжатия : С потерями
    Размер потока : 1,13 Гбайт (11%)
    Заголовок : Двуголосый закадровый
    Язык : Russian
    Default : Нет
    Forced : Нет
    Аудио #4
    Идентификатор : 5
    Формат : DTS
    Формат/Информация : Digital Theater Systems
    Режим : 16
    Параметр Endianness формата : Big
    Идентификатор кодека : A_DTS
    Продолжительность : 1 ч. 47 м.
    Вид битрейта : Постоянный
    Битрейт : 1509 Кбит/сек
    Каналы : 6 каналов
    Расположение каналов : Front: L C R, Side: L R, LFE
    Частота : 48,0 КГц
    Битовая глубина : 24 бит
    Метод сжатия : С потерями
    Размер потока : 1,13 Гбайт (11%)
    Заголовок : Одноголосый закадровый
    Язык : Russian
    Default : Нет
    Forced : Нет
    Аудио #5
    Идентификатор : 6
    Формат : AC-3
    Формат/Информация : Audio Coding 3
    Расширение режима : CM (complete main)
    Параметр Endianness формата : Big
    Идентификатор кодека : A_AC3
    Продолжительность : 1 ч. 47 м.
    Вид битрейта : Постоянный
    Битрейт : 192 Кбит/сек
    Каналы : 2 канала
    Расположение каналов : Front: L R
    Частота : 48,0 КГц
    Битовая глубина : 16 бит
    Метод сжатия : С потерями
    Размер потока : 148 Мбайт (1%)
    Заголовок : Многоголосый закадровый
    Язык : Ukrainian
    Default : Нет
    Forced : Нет
    Аудио #6
    Идентификатор : 7
    Формат : DTS
    Формат/Информация : Digital Theater Systems
    Режим : 16
    Параметр Endianness формата : Big
    Идентификатор кодека : A_DTS
    Продолжительность : 1 ч. 47 м.
    Вид битрейта : Постоянный
    Битрейт : 1509 Кбит/сек
    Каналы : 6 каналов
    Расположение каналов : Front: L C R, Side: L R, LFE
    Частота : 48,0 КГц
    Битовая глубина : 24 бит
    Метод сжатия : С потерями
    Размер потока : 1,13 Гбайт (11%)
    Заголовок : Оригинальный
    Язык : English
    Default : Нет
    Forced : Нет
    Текст #1
    Идентификатор : 8
    Формат : UTF-8
    Идентификатор кодека : S_TEXT/UTF8
    Идентификатор кодека/Информация : UTF-8 Plain Text
    Заголовок : Русские
    Язык : Russian
    Default : Нет
    Forced : Нет
    Текст #2
    Идентификатор : 9
    Формат : UTF-8
    Идентификатор кодека : S_TEXT/UTF8
    Идентификатор кодека/Информация : UTF-8 Plain Text
    Заголовок : English
    Язык : English
    Default : Нет
    Forced : Нет
    Меню
    00:00:00.000 : en:The Audition
    00:11:29.689 : en:Verone;s New Drivers
    00:14:20.818 : en:The Man for the Job
    00:16:02.628 : en:In the Interest of Justice
    00:18:57.345 : en:Busted
    00:24:23.545 : en:Surprise!
    00:28:16.820 : en:Time for Ignition
    00:35:14.154 : en:Hungry
    00:40:08.323 : en:The Best of Everything
    00:46:44.385 : en:Two More Cars
    00:58:55.115 : en:A Little Fun
    01:05:03.191 : en:Looking for Monica
    01:10:25.304 : en:The Wrong Two Guys
    01:13:38.039 : en:Guns, Murderers Cops
    01:22:15.639 : en:Let the Party Begin
    01:29:54.139 : en:The New Plan
    01:35:17.629 : en:Doing It Big
    01:37:32.972 : en:Clean Records
    01:40:33.027 : en:End Titles

    Скриншоты для ознакомления

    Тройной форсаж: Токийский Дрифт/The Fast and the Furious: Tokyo Drift (2006)

    Детально о кино
    Русское название:Тройной форсаж: Токийский Дрифт
    Русское название в мировом прокате:The Fast and the Furious: Tokyo Drift
    Создали в:2006
    Категория жанра:боевик, триллер, криминал
    Главный режиссер:Джастин Лин
    Актеры:Лукас Блэк, Бау Вау, Санг Кенг, Брайан Ти, Натали Келли, Брайан Гудман, Джейсон Дж. Тобин, Кейко Китагава, Сонни Тиба, Леонардо Нам
    Сюжет фильма:Шон Босуэлл — одинокий парень, который хочет казаться профи уличных гонок. Он бесшабашно гоняется по улицам города, пытаясь убежать от жизненных невзгод и наживая себе врагов среди местных властей. Когда Шону грозит тюрьма, его от греха подальше отсылают к отцу — профессиональному военному, который служит на военной базе в Японии.
    В незнакомой стране, живущей по своим законам, Шон чувствует себя еще большим изгоем. Однако вскоре его американский приятель Твинки знакомит его с миром подпольного дрифт-рейсинга. Раньше Шон просто тупо гонялся по улицам, а здесь перед ним открылся целый мир своеобразного искусства из металла и резины, дороги которого оказались невообразимо круты на поворотах…

    Снималось в:USA, Germany
    Киностудия:Universal Pictures, Relativity Media, Original Film
    Время просмотра:01:44:14
    Перевод текста:профессиональный (полное дублирование), профессиональный (многоголосый закадровый), авторский (одноголосый закадровый)
    Субтитры:русские, английские
    Файл
    Кодек для видео:MPEG-4 AVC/H.264
    Качество фильма:BDRip 720p
    Информация о видео:1280 x 544, (2,35:1), 6 292 kbps, 23.976 fps, 0.377 b/px
    Информация о звуке:
    Информация о звуке # 1:АС3, 6 ch, 448 kbps, 48 000 Hz Дублированный (Blu-ray CEE)
    Информация о звуке # 2:DTS, 6 ch, 755 kbps, 48 000 Hz Одноголосый закадровый (Ю.Немахов)
    Информация о звуке # 3:DTS, 6 ch, 1509 kbps, 48 000 Hz Одноголосый закадровый (А.Гаврилов)
    Информация о звуке # 4:АС3, 2 ch, 192 kbps, 48 000 Hz Многоголосый закадровый (Так Треба Продакшн)
    Информация о звуке # 5:DTS, 6 ch, 1509 kbps, 48 000 Hz Оригинальный
    MediaInfo
    Общее
    Уникальный идентификатор : 223540418073039332535146220914054505647 (0xA82C5188DF9092CC84D0834B416FA4AF)
    Полное имя : E:Video-TorrentФорсаж. Коллекция BDRip 720p2006 Тройной форсаж. Токийский Дрифт BDRip 720p.mkv
    Формат : Matroska
    Версия формата : Version 4/Version 2
    Размер файла : 7,95 Гбайт
    Продолжительность : 1 ч. 44 м.
    Общий поток : 10,9 Мбит/сек
    Название фильма : Тройной форсаж: Токийский Дрифт/The Fast and the Furious: Tokyo Drift (2006) BDRip 720p
    Дата кодирования : UTC 2014-11-01 10:58:18
    Программа кодирования : mkvmerge v7.2.0 (;On Every Street;) 32bit built on Sep 13 2014 15:42:11
    Библиотека кодирования : libebml v1.3.0 + libmatroska v1.4.1
    _STATISTICS_WRITING_APP : mkvmerge v7.2.0 (;On Every Street;) 32bit built on Sep 13 2014 15:42:11
    _STATISTICS_WRITING_DATE_UTC : 2014-11-01 10:58:18
    _STATISTICS_TAGS : BPS DURATION NUMBER_OF_FRAMES NUMBER_OF_BYTES
    DURATION : 01:42:05.050000000
    NUMBER_OF_FRAMES : 810
    NUMBER_OF_BYTES : 22495
    Видео
    Идентификатор : 1
    Формат : AVC
    Формат/Информация : Advanced Video Codec
    Профиль формата : High@L4.1
    Параметр CABAC формата : Да
    Параметр ReFrames формата : 12 кадров
    Идентификатор кодека : V_MPEG4/ISO/AVC
    Продолжительность : 1 ч. 44 м.
    Битрейт : 6292 Кбит/сек
    Ширина : 1280 пикселей
    Высота : 544 пикселя
    Соотношение сторон : 2,35:1
    Режим частоты кадров : Постоянный
    Частота кадров : 23,976 кадра/сек
    Цветовое пространство : YUV
    Субдискретизация насыщенности : 4:2:0
    Битовая глубина : 8 бит
    Тип развёртки : Прогрессивная
    Бит/(Пиксели*Кадры) : 0.377
    Размер потока : 4,58 Гбайт (58%)
    Заголовок : 2006 Тройной форсаж: Токийский Дрифт/The Fast and the Furious: Tokyo Drift BDRip 720p
    Библиотека кодирования : x264 core 140 r2377 1ca7bb9
    Настройки программы : cabac=1/ref=12/deblock=1:-3:-3/analyse=0x3:0x113/me=umh/subme=9/psy=1/psy_rd=1.00:0.00/mixed_ref=1/me_range=16/chroma_me=1/trellis=2/8x8dct=1/cqm=1/deadzone=21,11/fast_pskip=0/chroma_qp_offset=-1/threads=8/lookahead_threads=1/sliced_threads=0/nr=0/decimate=1/interlaced=0/bluray_compat=0/constrained_intra=0/bframes=6/b_pyramid=2/b_adapt=2/b_bias=0/direct=3/weightb=1/open_gop=0/weightp=2/keyint=230/keyint_min=23/scenecut=40/intra_refresh=0/rc_lookahead=40/rc=crf/mbtree=0/crf=17.3/qcomp=0.60/qpmin=2/qpmax=69/qpstep=4/vbv_maxrate=62500/vbv_bufsize=78125/crf_max=0.0/nal_hrd=none/filler=0/ip_ratio=1.00/pb_ratio=1.00/aq=2:0.70
    Язык : English
    Default : Да
    Forced : Нет
    _STATISTICS_WRITING_APP : mkvmerge v7.2.0 (;On Every Street;) 32bit built on Sep 13 2014 15:42:11
    _STATISTICS_WRITING_DATE_UTC : 2014-11-01 10:58:18
    _STATISTICS_TAGS : BPS DURATION NUMBER_OF_FRAMES NUMBER_OF_BYTES
    DURATION : 01:44:14.123000000
    NUMBER_OF_FRAMES : 149949
    NUMBER_OF_BYTES : 5085450867
    Аудио #1
    Идентификатор : 2
    Формат : AC-3
    Формат/Информация : Audio Coding 3
    Расширение режима : CM (complete main)
    Параметр Endianness формата : Big
    Идентификатор кодека : A_AC3
    Продолжительность : 1 ч. 44 м.
    Вид битрейта : Постоянный
    Битрейт : 448 Кбит/сек
    Каналы : 6 каналов
    Расположение каналов : Front: L C R, Side: L R, LFE
    Частота : 48,0 КГц
    Битовая глубина : 16 бит
    Метод сжатия : С потерями
    Размер потока : 334 Мбайт (4%)
    Заголовок : Дублированный
    Язык : Russian
    Default : Да
    Forced : Нет
    Аудио #2
    Идентификатор : 3
    Формат : DTS
    Формат/Информация : Digital Theater Systems
    Режим : 16
    Параметр Endianness формата : Big
    Идентификатор кодека : A_DTS
    Продолжительность : 1 ч. 44 м.
    Вид битрейта : Постоянный
    Битрейт : 755 Кбит/сек
    Каналы : 6 каналов
    Расположение каналов : Front: L C R, Side: L R, LFE
    Частота : 48,0 КГц
    Битовая глубина : 24 бит
    Метод сжатия : С потерями
    Размер потока : 563 Мбайт (7%)
    Заголовок : Одноголосый закадровый
    Язык : Russian
    Default : Нет
    Forced : Нет
    Аудио #3
    Идентификатор : 4
    Формат : DTS
    Формат/Информация : Digital Theater Systems
    Режим : 16
    Параметр Endianness формата : Big
    Идентификатор кодека : A_DTS
    Продолжительность : 1 ч. 44 м.
    Вид битрейта : Постоянный
    Битрейт : 1509 Кбит/сек
    Каналы : 6 каналов
    Расположение каналов : Front: L C R, Side: L R, LFE
    Частота : 48,0 КГц
    Битовая глубина : 24 бит
    Метод сжатия : С потерями
    Размер потока : 1,10 Гбайт (14%)
    Заголовок : Одноголосый закадровый
    Язык : Russian
    Default : Нет
    Forced : Нет
    Аудио #4
    Идентификатор : 5
    Формат : AC-3
    Формат/Информация : Audio Coding 3
    Расширение режима : CM (complete main)
    Параметр Endianness формата : Big
    Идентификатор кодека : A_AC3
    Продолжительность : 1 ч. 44 м.
    Вид битрейта : Постоянный
    Битрейт : 192 Кбит/сек
    Каналы : 2 канала
    Расположение каналов : Front: L R
    Частота : 48,0 КГц
    Битовая глубина : 16 бит
    Метод сжатия : С потерями
    Размер потока : 143 Мбайт (2%)
    Заголовок : Многоголосый закадровый
    Язык : Ukrainian
    Default : Нет
    Forced : Нет
    Аудио #5
    Идентификатор : 6
    Формат : DTS
    Формат/Информация : Digital Theater Systems
    Режим : 16
    Параметр Endianness формата : Big
    Идентификатор кодека : A_DTS
    Продолжительность : 1 ч. 44 м.
    Вид битрейта : Постоянный
    Битрейт : 1509 Кбит/сек
    Каналы : 6 каналов
    Расположение каналов : Front: L C R, Side: L R, LFE
    Частота : 48,0 КГц
    Битовая глубина : 24 бит
    Метод сжатия : С потерями
    Размер потока : 1,10 Гбайт (14%)
    Заголовок : Оригинальный
    Язык : English
    Default : Нет
    Forced : Нет
    Текст #1
    Идентификатор : 7
    Формат : UTF-8
    Идентификатор кодека : S_TEXT/UTF8
    Идентификатор кодека/Информация : UTF-8 Plain Text
    Заголовок : Русские
    Язык : Russian
    Default : Нет
    Forced : Нет
    Текст #2
    Идентификатор : 8
    Формат : UTF-8
    Идентификатор кодека : S_TEXT/UTF8
    Идентификатор кодека/Информация : UTF-8 Plain Text
    Заголовок : English
    Язык : English
    Default : Нет
    Forced : Нет
    Меню
    00:00:00.000 : en:Main Titles
    00:03:04.434 : en:Winner Take All
    00:09:43.499 : en:Off the Streets
    00:12:10.688 : en:Stick to the Rules
    00:16:15.391 : en:First Day in Class
    00:20:16.840 : en:My Ride
    00:26:36.469 : en:DK Challenge
    00:32:56.849 : en:No Choice
    00:41:14.305 : en:Represent
    00:46:34.833 : en:Trust Character
    00:52:55.255 : en:Feel It
    00:58:20.121 : en:Drifting Fate
    01:01:46.244 : en:Gaijin
    01:05:50.488 : en:For Want
    01:08:56.090 : en:It;s What We Do
    01:16:14.611 : en:My Mess
    01:20:31.409 : en:Peaceful Resolution
    01:26:53.249 : en:To the Finish
    01:34:59.944 : en:An Old Friend
    01:37:33.848 : en:End Titles

    Скриншоты для ознакомления

    Форсаж 4/Fast Furious (2009)

    Детально о кино
    Русское название:Форсаж 4
    Русское название в мировом прокате:Fast Furious
    Создали в:2009
    Категория жанра:криминал, боевик, триллер
    Главный режиссер:Джастин Лин
    Актеры:Вин Дизель, Пол Уокер, Джордана Брюстер, Галь Гадот, Джон Ортис, Лас Алонсо, Мишель Родригес, Джек Конли, Ши Уигхэм, Лиза Лапира
    Сюжет фильма:Когда кривая дорожка заставляет скрывающегося от правосудия Дома Торетто вернуться в Лос-Анджелес, вражда с агентом Брайаном О’Коннером вспыхивает с новой силой. Но у парочки обнаруживается общий противник, и Дому с Брайаном приходится заключить перемирие в надежде одержать над ним победу. Грабя конвои, роя подкопы и пересекая границы, они приходят к идеальной форме отмщения — педали газа, вдавленной до упора...

    Снималось в:USA, Japan
    Киностудия:Universal Pictures, Relativity Media, Original Film
    Время просмотра:01:46:52
    Перевод текста:профессиональный (полное дублирование), профессиональный (многоголосый закадровый), авторский (одноголосый закадровый)
    Субтитры:русские, английские
    Файл
    Кодек для видео:MPEG-4 AVC/H.264
    Качество фильма:BDRip 720p
    Информация о видео:1280 x 534, (2,40:1), 6 958 kbps, 23.976 fps, 0.425 b/px
    Информация о звуке:
    Информация о звуке # 1:DTS, 6 ch, 768 kbps, 48 000 Hz Дублированный (Blu-ray CEE)
    Информация о звуке # 2:АС3, 6 ch, 448 kbps, 48 000 Hz Одноголосый закадровый (Ю.Немахов)
    Информация о звуке # 3:DTS, 6 ch, 1509 kbps, 48 000 Hz Одноголосый закадровый (А.Гаврилов)
    Информация о звуке # 4:АС3, 6 ch, 448 kbps, 48 000 Hz Дублированный (Украинский)
    Информация о звуке # 5:АС3, 2 ch, 192 kbps, 48 000 Hz Многоголосый закадровый (Украинский)
    Информация о звуке # 6:DTS, 6 ch, 1509 kbps, 48 000 Hz Оригинальный
    MediaInfo
    Общее
    Уникальный идентификатор : 236009921514787150571523145114588061697 (0xB18DDB853C999ED2A036290691CCA001)
    Полное имя : E:Video-TorrentФорсаж. Коллекция BDRip 720p2009 Форсаж 4 BDRip 720p.mkv
    Формат : Matroska
    Версия формата : Version 4/Version 2
    Размер файла : 9,01 Гбайт
    Продолжительность : 1 ч. 46 м.
    Общий поток : 12,1 Мбит/сек
    Название фильма : Форсаж 4/Fast Furious (2009) BDRip 720p
    Дата кодирования : UTC 2014-11-01 11:50:35
    Программа кодирования : mkvmerge v7.2.0 (;On Every Street;) 32bit built on Sep 13 2014 15:42:11
    Библиотека кодирования : libebml v1.3.0 + libmatroska v1.4.1
    _STATISTICS_WRITING_APP : mkvmerge v7.2.0 (;On Every Street;) 32bit built on Sep 13 2014 15:42:11
    _STATISTICS_WRITING_DATE_UTC : 2014-11-01 11:50:35
    _STATISTICS_TAGS : BPS DURATION NUMBER_OF_FRAMES NUMBER_OF_BYTES
    DURATION : 01:37:23.044000000
    NUMBER_OF_FRAMES : 787
    NUMBER_OF_BYTES : 25362
    Видео
    Идентификатор : 1
    Формат : AVC
    Формат/Информация : Advanced Video Codec
    Профиль формата : High@L4.1
    Параметр CABAC формата : Да
    Параметр ReFrames формата : 12 кадров
    Идентификатор кодека : V_MPEG4/ISO/AVC
    Продолжительность : 1 ч. 46 м.
    Битрейт : 6958 Кбит/сек
    Ширина : 1280 пикселей
    Высота : 534 пикселя
    Соотношение сторон : 2,40:1
    Соотношение сторон в оригинале : 2,40:1
    Режим частоты кадров : Постоянный
    Частота кадров : 23,976 кадра/сек
    Цветовое пространство : YUV
    Субдискретизация насыщенности : 4:2:0
    Битовая глубина : 8 бит
    Тип развёртки : Прогрессивная
    Бит/(Пиксели*Кадры) : 0.425
    Размер потока : 5,19 Гбайт (58%)
    Заголовок : 2009 Форсаж 4/Fast Furious BDRip 720p
    Библиотека кодирования : x264 core 142 r2431+42 c69a006 tMod 8-bit@4:2:0 X86_64
    Настройки программы : cabac=1/ref=12/deblock=1:-2:-2/analyse=0x3:0x133/me=umh/subme=11/psy=1/fade_compensate=0.00/psy_rd=1.00:0.00/mixed_ref=1/me_range=32/chroma_me=1/trellis=2/8x8dct=1/cqm=0/deadzone=21,11/fast_pskip=1/chroma_qp_offset=-2/threads=12/lookahead_threads=3/sliced_threads=0/nr=0/decimate=1/interlaced=0/bluray_compat=0/constrained_intra=0/fgo=0/bframes=10/b_pyramid=2/b_adapt=2/b_bias=0/direct=1/weightb=1/open_gop=0/weightp=2/keyint=250/keyint_min=23/scenecut=40/intra_refresh=0/rc_lookahead=60/rc=crf/mbtree=0/crf=17.5000/qcomp=0.70/qpmin=0:0:0/qpmax=69:69:69/qpstep=4/vbv_maxrate=62500/vbv_bufsize=78125/crf_max=0.0/nal_hrd=none/filler=0/ip_ratio=1.40/pb_ratio=1.30/aq=4:0.80/aq-sensitivity=11.00/aq-factor=1.00:1.00:1.00/aq2=1:0.60/aq2-sensitivity=9.00/aq2-factor=1.00:1.00:1.00/aq3=1:0.60:0.60:0.60:0.60:0.60:0.60:0.60:0.60/aq3-sensitivity=10.00/aq3-factor=1.00:1.00:1.00:1.00:1.00:1.00/aq3-boundary=192:64:24
    Язык : English
    Default : Да
    Forced : Нет
    Основные цвета : BT.709
    Характеристики трансфера : BT.709
    Коэффициенты матрицы : BT.709
    Аудио #1
    Идентификатор : 2
    Формат : DTS
    Формат/Информация : Digital Theater Systems
    Режим : 16
    Параметр Endianness формата : Big
    Идентификатор кодека : A_DTS
    Продолжительность : 1 ч. 46 м.
    Вид битрейта : Постоянный
    Битрейт : 768 Кбит/сек
    Каналы : 6 каналов
    Расположение каналов : Front: L C R, Side: L R, LFE
    Частота : 48,0 КГц
    Битовая глубина : 24 бит
    Метод сжатия : С потерями
    Размер потока : 587 Мбайт (6%)
    Заголовок : Дублированный
    Язык : Russian
    Default : Да
    Forced : Нет
    Аудио #2
    Идентификатор : 3
    Формат : AC-3
    Формат/Информация : Audio Coding 3
    Расширение режима : CM (complete main)
    Параметр Endianness формата : Big
    Идентификатор кодека : A_AC3
    Продолжительность : 1 ч. 46 м.
    Вид битрейта : Постоянный
    Битрейт : 448 Кбит/сек
    Каналы : 6 каналов
    Расположение каналов : Front: L C R, Side: L R, LFE
    Частота : 48,0 КГц
    Битовая глубина : 16 бит
    Метод сжатия : С потерями
    Размер потока : 342 Мбайт (4%)
    Заголовок : Одноголосый закадровый
    Язык : Russian
    Default : Нет
    Forced : Нет
    Аудио #3
    Идентификатор : 4
    Формат : DTS
    Формат/Информация : Digital Theater Systems
    Режим : 16
    Параметр Endianness формата : Big
    Идентификатор кодека : A_DTS
    Продолжительность : 1 ч. 46 м.
    Вид битрейта : Постоянный
    Битрейт : 1509 Кбит/сек
    Каналы : 6 каналов
    Расположение каналов : Front: L C R, Side: L R, LFE
    Частота : 48,0 КГц
    Битовая глубина : 24 бит
    Метод сжатия : С потерями
    Размер потока : 1,13 Гбайт (12%)
    Заголовок : Одноголосый закадровый
    Язык : Russian
    Default : Нет
    Forced : Нет
    Аудио #4
    Идентификатор : 5
    Формат : AC-3
    Формат/Информация : Audio Coding 3
    Расширение режима : CM (complete main)
    Параметр Endianness формата : Big
    Идентификатор кодека : A_AC3
    Продолжительность : 1 ч. 46 м.
    Вид битрейта : Постоянный
    Битрейт : 448 Кбит/сек
    Каналы : 6 каналов
    Расположение каналов : Front: L C R, Side: L R, LFE
    Частота : 48,0 КГц
    Битовая глубина : 16 бит
    Метод сжатия : С потерями
    Размер потока : 342 Мбайт (4%)
    Заголовок : Дублированный
    Язык : Ukrainian
    Default : Нет
    Forced : Нет
    Аудио #5
    Идентификатор : 6
    Формат : AC-3
    Формат/Информация : Audio Coding 3
    Расширение режима : CM (complete main)
    Параметр Endianness формата : Big
    Идентификатор кодека : A_AC3
    Продолжительность : 1 ч. 46 м.
    Вид битрейта : Постоянный
    Битрейт : 192 Кбит/сек
    Каналы : 2 канала
    Расположение каналов : Front: L R
    Частота : 48,0 КГц
    Битовая глубина : 16 бит
    Метод сжатия : С потерями
    Размер потока : 147 Мбайт (2%)
    Заголовок : Многоголосый закадровый
    Язык : Ukrainian
    Default : Нет
    Forced : Нет
    Аудио #6
    Идентификатор : 7
    Формат : DTS
    Формат/Информация : Digital Theater Systems
    Режим : 16
    Параметр Endianness формата : Big
    Идентификатор кодека : A_DTS
    Продолжительность : 1 ч. 46 м.
    Вид битрейта : Постоянный
    Битрейт : 1509 Кбит/сек
    Каналы : 6 каналов
    Расположение каналов : Front: L C R, Side: L R, LFE
    Частота : 48,0 КГц
    Битовая глубина : 24 бит
    Метод сжатия : С потерями
    Размер потока : 1,13 Гбайт (12%)
    Заголовок : Оригинальный
    Язык : English
    Default : Нет
    Forced : Нет
    Текст #1
    Идентификатор : 8
    Формат : UTF-8
    Идентификатор кодека : S_TEXT/UTF8
    Идентификатор кодека/Информация : UTF-8 Plain Text
    Заголовок : Русские
    Язык : Russian
    Default : Нет
    Forced : Нет
    Текст #2
    Идентификатор : 9
    Формат : UTF-8
    Идентификатор кодека : S_TEXT/UTF8
    Идентификатор кодека/Информация : UTF-8 Plain Text
    Заголовок : English
    Язык : English
    Default : Нет
    Forced : Нет
    Меню
    00:00:00.000 : en:Game Time
    00:07:26.529 : en:Ride Or Die
    00:11:46.955 : en:Foot Pursuit
    00:16:46.755 : en:Coming Home
    00:24:24.087 : en:Back On The Scene
    00:29:05.452 : en:Tuned-Up
    00:34:05.293 : en:A Real Driver
    00:37:30.790 : en:Muscle Beats Import
    00:46:07.347 : en:Boss Os Bosses
    00:53:37.380 : en:Along For The Ride
    00:58:15.158 : en:High-Performance
    01:04:49.218 : en:Spotted Together
    01:07:29.879 : en:Food, Family, Friendship
    01:12:01.859 : en:Just Business
    01:14:46.523 : en:Primary Target
    01:20:36.164 : en:Juisdiction Ends
    01:25:03.264 : en:Ain;t Forgiven
    01:29:09.385 : en:Run For The Border
    01:35:54.999 : en:Steet Pardon
    01:39:24.957 : en:End Titles

    Скриншоты для ознакомления

    Форсаж 5/Fast Five (2011) (Extended Cut)

    Детально о кино
    Русское название:Форсаж 5
    Русское название в мировом прокате:Fast Five
    Создали в:2011
    Категория жанра:боевик, триллер, криминал
    Главный режиссер:Джастин Лин
    Актеры:Вин Дизель, Пол Уокер, Джордана Брюстер, Дуэйн Джонсон, Тайриз Гибсон, Лудакрис, Мэтт Шульце, Санг Кенг, Галь Гадот, Эльза Патаки
    Сюжет фильма:Бывший полицейский Брайан О`Коннер вместе с бывалым лихачом Домиником Торетто совсем немного увлеклись жизнью вне закона. После того, как Брайан и Миа Торетто освободили Доминика, они не рискуют долго задерживаться на одном месте, так как являются желанной целью порядком недовольных копов...

    Снималось в:USA
    Киностудия:Universal Pictures, Original Film, One Race Productions
    Время просмотра:02:11:35
    Перевод текста:профессиональный (полное дублирование), авторский (одноголосый закадровый)
    Субтитры:русские, английские
    Файл
    Кодек для видео:MPEG-4 AVC/H.264
    Качество фильма:BDRip 720p
    Информация о видео:1280 x 544, (2,35:1), 6 000 kbps, 23.976 fps, 0.359 b/px
    Информация о звуке:
    Информация о звуке # 1:DTS, 6 ch, 755 kbps, 48 000 Hz Дублированный
    Информация о звуке # 2:DTS, 6 ch, 1509 kbps, 48 000 Hz Одноголосый закадровый (А.Гаврилов)
    Информация о звуке # 3:DTS, 6 ch, 1509 kbps, 48 000 Hz Оригинальный
    MediaInfo
    Общее
    Уникальный идентификатор : 241410180685220754375887095385835826728 (0xB59DE8DAA379FE6E8D301E79B55DEE28)
    Полное имя : E:VideoФорсаж. Коллекция BDRip 720p2011 Форсаж 5 Extended Cut BDRip 720p.mkv
    Формат : Matroska
    Версия формата : Version 4/Version 2
    Размер файла : 8,99 Гбайт
    Продолжительность : 2 ч. 11 м.
    Общий поток : 9776 Кбит/сек
    Название фильма : Форсаж 5/Fast Five (2011) Extended Cut BDRip 720p
    Дата кодирования : UTC 2014-11-01 12:39:00
    Программа кодирования : mkvmerge v7.2.0 (;On Every Street;) 32bit built on Sep 13 2014 15:42:11
    Библиотека кодирования : libebml v1.3.0 + libmatroska v1.4.1
    _STATISTICS_WRITING_APP : mkvmerge v7.2.0 (;On Every Street;) 32bit built on Sep 13 2014 15:42:11
    _STATISTICS_WRITING_DATE_UTC : 2014-11-01 12:39:00
    _STATISTICS_TAGS : BPS DURATION NUMBER_OF_FRAMES NUMBER_OF_BYTES
    DURATION : 02:04:54.820000000
    NUMBER_OF_FRAMES : 1152
    NUMBER_OF_BYTES : 36539
    Видео
    Идентификатор : 1
    Формат : AVC
    Формат/Информация : Advanced Video Codec
    Профиль формата : High@L4.1
    Параметр CABAC формата : Да
    Параметр ReFrames формата : 12 кадров
    Идентификатор кодека : V_MPEG4/ISO/AVC
    Продолжительность : 2 ч. 11 м.
    Битрейт : 6000 Кбит/сек
    Ширина : 1280 пикселей
    Высота : 544 пикселя
    Соотношение сторон : 2,35:1
    Режим частоты кадров : Постоянный
    Частота кадров : 23,976 кадра/сек
    Цветовое пространство : YUV
    Субдискретизация насыщенности : 4:2:0
    Битовая глубина : 8 бит
    Тип развёртки : Прогрессивная
    Бит/(Пиксели*Кадры) : 0.359
    Размер потока : 5,34 Гбайт (59%)
    Заголовок : 2011 Форсаж 5/Fast Five Extended Cut BDRip 720p
    Библиотека кодирования : x264 core 116 r2074 2641b9e
    Настройки программы : cabac=1/ref=12/deblock=1:-3:-3/analyse=0x3:0x133/me=umh/subme=10/psy=1/psy_rd=1.20:0.20/mixed_ref=1/me_range=32/chroma_me=1/trellis=2/8x8dct=1/cqm=0/deadzone=21,11/fast_pskip=0/chroma_qp_offset=-3/threads=6/sliced_threads=0/nr=0/decimate=1/interlaced=0/bluray_compat=0/constrained_intra=0/bframes=7/b_pyramid=2/b_adapt=2/b_bias=0/direct=1/weightb=1/open_gop=0/weightp=2/keyint=250/keyint_min=23/scenecut=40/intra_refresh=0/rc_lookahead=40/rc=2pass/mbtree=1/bitrate=6000/ratetol=1.0/qcomp=0.60/qpmin=0/qpmax=51/qpstep=4/cplxblur=20.0/qblur=0.5/vbv_maxrate=50000/vbv_bufsize=50000/nal_hrd=none/ip_ratio=1.40/aq=1:0.80
    Язык : English
    Default : Да
    Forced : Нет
    _STATISTICS_WRITING_APP : mkvmerge v7.2.0 (;On Every Street;) 32bit built on Sep 13 2014 15:42:11
    _STATISTICS_WRITING_DATE_UTC : 2014-11-01 12:39:00
    _STATISTICS_TAGS : BPS DURATION NUMBER_OF_FRAMES NUMBER_OF_BYTES
    DURATION : 02:11:34.971000000
    NUMBER_OF_FRAMES : 189290
    NUMBER_OF_BYTES : 5920870442
    Аудио #1
    Идентификатор : 2
    Формат : DTS
    Формат/Информация : Digital Theater Systems
    Режим : 16
    Параметр Endianness формата : Big
    Идентификатор кодека : A_DTS
    Продолжительность : 2 ч. 11 м.
    Вид битрейта : Постоянный
    Битрейт : 755 Кбит/сек
    Каналы : 6 каналов
    Расположение каналов : Front: L C R, Side: L R, LFE
    Частота : 48,0 КГц
    Битовая глубина : 24 бит
    Метод сжатия : С потерями
    Размер потока : 710 Мбайт (8%)
    Заголовок : Дублированный
    Язык : Russian
    Default : Да
    Forced : Нет
    Аудио #2
    Идентификатор : 3
    Формат : DTS
    Формат/Информация : Digital Theater Systems
    Режим : 16
    Параметр Endianness формата : Big
    Идентификатор кодека : A_DTS
    Продолжительность : 2 ч. 11 м.
    Вид битрейта : Постоянный
    Битрейт : 1509 Кбит/сек
    Каналы : 6 каналов
    Расположение каналов : Front: L C R, Side: L R, LFE
    Частота : 48,0 КГц
    Битовая глубина : 24 бит
    Метод сжатия : С потерями
    Размер потока : 1,39 Гбайт (15%)
    Заголовок : Одноголосый закадровый
    Язык : Russian
    Default : Нет
    Forced : Нет
    Аудио #3
    Идентификатор : 4
    Формат : DTS
    Формат/Информация : Digital Theater Systems
    Режим : 16
    Параметр Endianness формата : Big
    Идентификатор кодека : A_DTS
    Продолжительность : 2 ч. 11 м.
    Вид битрейта : Постоянный
    Битрейт : 1509 Кбит/сек
    Каналы : 6 каналов
    Расположение каналов : Front: L C R, Side: L R, LFE
    Частота : 48,0 КГц
    Битовая глубина : 24 бит
    Метод сжатия : С потерями
    Размер потока : 1,39 Гбайт (15%)
    Заголовок : Оригинальный
    Язык : English
    Default : Нет
    Forced : Нет
    Текст #1
    Идентификатор : 5
    Формат : UTF-8
    Идентификатор кодека : S_TEXT/UTF8
    Идентификатор кодека/Информация : UTF-8 Plain Text
    Заголовок : Русские
    Язык : Russian
    Default : Нет
    Forced : Нет
    Текст #2
    Идентификатор : 6
    Формат : UTF-8
    Идентификатор кодека : S_TEXT/UTF8
    Идентификатор кодека/Информация : UTF-8 Plain Text
    Заголовок : English
    Язык : English
    Default : Нет
    Forced : Нет
    Меню
    00:00:00.000 : en:00:00:00.000
    00:07:45.715 : en:00:07:45.715
    00:17:29.465 : en:00:17:29.465
    00:23:01.839 : en:00:23:01.839
    00:28:21.575 : en:00:28:21.575
    00:35:05.353 : en:00:35:05.353
    00:40:56.037 : en:00:40:56.037
    00:48:51.303 : en:00:48:51.303
    00:55:29.993 : en:00:55:29.993
    01:04:07.552 : en:01:04:07.552
    01:11:42.256 : en:01:11:42.256
    01:19:23.467 : en:01:19:23.467
    01:23:33.800 : en:01:23:33.800
    01:28:56.331 : en:01:28:56.331
    01:32:57.489 : en:01:32:57.489
    01:40:27.104 : en:01:40:27.104
    01:48:14.530 : en:01:48:14.530
    01:56:03.915 : en:01:56:03.915
    02:00:29.013 : en:02:00:29.013
    02:04:38.096 : en:02:04:38.096

    Скриншоты для ознакомления

    Форсаж 6/Furious 6 (2013) (Extended Cut)

    Детально о кино
    Русское название:Форсаж 6
    Русское название в мировом прокате:Furious 6
    Создали в:2013
    Категория жанра:боевик, триллер, криминал
    Главный режиссер:Джастин Лин
    Актеры:Вин Дизель, Пол Уокер, Дуэйн Джонсон, Джордана Брюстер, Мишель Родригес, Тайриз Гибсон, Санг Кенг, Галь Гадот, Лудакрис, Люк Эванс
    Сюжет фильма:После того как Доминик и Брайн побывали в Рио, где они ограбили и свергли империю вора в законе, их команда получила 100 миллионов, и наши герои оказались разбросаны по всему миру. Но их привычка вечно жить в бегах не даёт им покоя. Между тем, Хоббс отслеживал организацию смертельно опасных наёмников-водителей по двенадцати странам. Единственный способ остановить эту криминальную группу — это превзойти их на улицах, поэтому Хоббс просит Доминика собрать его элитную команду в Лондоне. За это он обещает полное помилование для Доминика и его друзей, чтобы они смогли наконец вернуться домой к своей семье...

    Снималось в:USA
    Киностудия:Universal Pictures, Relativity Media, Original Film
    Время просмотра:02:11:03
    Перевод текста:профессиональный (полное дублирование), авторский (одноголосый закадровый)
    Субтитры:русские, английские
    Файл
    Кодек для видео:MPEG-4 AVC/H.264
    Качество фильма:BDRip 720p
    Информация о видео:1280 x 544, (2,35:1), 8 056 kbps, 23.976 fps, 0.483 b/px
    Информация о звуке:
    Информация о звуке # 1:DTS, 6 ch, 768 kbps, 48 000 Hz Дублированный (Blu-ray)
    Информация о звуке # 2:DTS, 6 ch, 1509 kbps, 48 000 Hz Одноголосый закадровый (Л.Володарский)
    Информация о звуке # 3:DTS, 6 ch, 1509 kbps, 48 000 Hz Оригинальный
    MediaInfo
    codeОбщее
    Уникальный идентификатор : 246809103356485772229321908944136112931 (0xB9ADB44B0CA16B788E26F60125350B23)
    Полное имя : E:VideoФорсаж. Коллекция BDRip 720p2013 Форсаж 6 Extended Cut BDRip 720p.mkv
    Формат : Matroska
    Версия формата : Version 4/Version 2
    Размер файла : 11,1 Гбайт
    Продолжительность : 2 ч. 11 м.
    Общий поток : 12,1 Мбит/сек
    Название фильма : Форсаж 6/Furious 6 (2013) Extended Cut BDRip 720p
    Дата кодирования : UTC 2014-11-01 13:40:11
    Программа кодирования : mkvmerge v7.2.0 (;On Every Street;) 32bit built on Sep 13 2014 15:42:11
    Библиотека кодирования : libebml v1.3.0 + libmatroska v1.4.1
    _STATISTICS_WRITING_APP : mkvmerge v7.2.0 (;On Every Street;) 32bit built on Sep 13 2014 15:42:11
    _STATISTICS_WRITING_DATE_UTC : 2014-11-01 13:40:11
    _STATISTICS_TAGS : BPS DURATION NUMBER_OF_FRAMES NUMBER_OF_BYTES
    DURATION : 02:02:53.380000000
    NUMBER_OF_FRAMES : 1270
    NUMBER_OF_BYTES : 39516
    Видео
    Идентификатор : 1
    Формат : AVC
    Формат/Информация : Advanced Video Codec
    Профиль формата : High@L4.1
    Параметр CABAC формата : Да
    Параметр ReFrames формата : 12 кадров
    Идентификатор кодека : V_MPEG4/ISO/AVC
    Продолжительность : 2 ч. 11 м.
    Битрейт : 8056 Кбит/сек
    Ширина : 1280 пикселей
    Высота : 544 пикселя
    Соотношение сторон : 2,35:1
    Режим частоты кадров : Постоянный
    Частота кадров : 23,976 кадра/сек
    Цветовое пространство : YUV
    Субдискретизация насыщенности : 4:2:0
    Битовая глубина : 8 бит
    Тип развёртки : Прогрессивная
    Бит/(Пиксели*Кадры) : 0.483
    Размер потока : 7,37 Гбайт (67%)
    Заголовок : 2013 Форсаж 6 Extended Cut BDRip 720p
    Библиотека кодирования : x264 core 138 r2358 9e941d1
    Настройки программы : cabac=1/ref=12/deblock=1:-3:-3/analyse=0x3:0x133/me=umh/subme=10/psy=1/psy_rd=1.05:0.00/mixed_ref=1/me_range=48/chroma_me=1/trellis=2/8x8dct=1/cqm=0/deadzone=21,11/fast_pskip=0/chroma_qp_offset=-2/threads=6/lookahead_threads=1/sliced_threads=0/nr=0/decimate=1/interlaced=0/bluray_compat=0/constrained_intra=0/bframes=9/b_pyramid=2/b_adapt=2/b_bias=0/direct=3/weightb=1/open_gop=0/weightp=2/keyint=250/keyint_min=23/scenecut=40/intra_refresh=0/rc_lookahead=60/rc=crf/mbtree=0/crf=15.7/qcomp=0.75/qpmin=0/qpmax=69/qpstep=4/vbv_maxrate=50000/vbv_bufsize=62500/crf_max=0.0/nal_hrd=none/ip_ratio=1.30/pb_ratio=1.20/aq=1:0.75
    Язык : English
    Default : Да
    Forced : Нет
    _STATISTICS_WRITING_APP : mkvmerge v7.2.0 (;On Every Street;) 32bit built on Sep 13 2014 15:42:11
    _STATISTICS_WRITING_DATE_UTC : 2014-11-01 13:40:11
    _STATISTICS_TAGS : BPS DURATION NUMBER_OF_FRAMES NUMBER_OF_BYTES
    DURATION : 02:11:02.855000000
    NUMBER_OF_FRAMES : 188520
    NUMBER_OF_BYTES : 8149964054
    Аудио #1
    Идентификатор : 2
    Формат : DTS
    Формат/Информация : Digital Theater Systems
    Режим : 16
    Параметр Endianness формата : Big
    Идентификатор кодека : A_DTS
    Продолжительность : 2 ч. 11 м.
    Вид битрейта : Постоянный
    Битрейт : 768 Кбит/сек
    Каналы : 6 каналов
    Расположение каналов : Front: L C R, Side: L R, LFE
    Частота : 48,0 КГц
    Битовая глубина : 24 бит
    Метод сжатия : С потерями
    Размер потока : 720 Мбайт (6%)
    Заголовок : Дублированный
    Язык : Russian
    Default : Да
    Forced : Нет
    Аудио #2
    Идентификатор : 3
    Формат : DTS
    Формат/Информация : Digital Theater Systems
    Режим : 16
    Параметр Endianness формата : Big
    Идентификатор кодека : A_DTS
    Продолжительность : 2 ч. 11 м.
    Вид битрейта : Постоянный
    Битрейт : 1509 Кбит/сек
    Каналы : 6 каналов
    Расположение каналов : Front: L C R, Side: L R, LFE
    Частота : 48,0 КГц
    Битовая глубина : 24 бит
    Метод сжатия : С потерями
    Размер потока : 1,38 Гбайт (12%)
    Заголовок : Одноголосый закадровый
    Язык : Russian
    Default : Нет
    Forced : Нет
    Аудио #3
    Идентификатор : 4
    Формат : DTS
    Формат/Информация : Digital Theater Systems
    Режим : 16
    Параметр Endianness формата : Big
    Идентификатор кодека : A_DTS
    Продолжительность : 2 ч. 11 м.
    Вид битрейта : Постоянный
    Битрейт : 1509 Кбит/сек
    Каналы : 6 каналов
    Расположение каналов : Front: L C R, Side: L R, LFE
    Частота : 48,0 КГц
    Битовая глубина : 24 бит
    Метод сжатия : С потерями
    Размер потока : 1,38 Гбайт (12%)
    Заголовок : Оригинальный
    Язык : English
    Default : Нет
    Forced : Нет
    Текст #1
    Идентификатор : 5
    Формат : UTF-8
    Идентификатор кодека : S_TEXT/UTF8
    Идентификатор кодека/Информация : UTF-8 Plain Text
    Заголовок : Русские
    Язык : Russian
    Default : Нет
    Forced : Нет
    Текст #2
    Идентификатор : 6
    Формат : UTF-8
    Идентификатор кодека : S_TEXT/UTF8
    Идентификатор кодека/Информация : UTF-8 Plain Text
    Заголовок : English
    Язык : English
    Default : Нет
    Forced : Нет
    Меню
    00:00:00.000 : en:00:00:00.000
    00:04:21.011 : en:00:04:21.011
    00:10:19.118 : en:00:10:19.118
    00:15:35.268 : en:00:15:35.268
    00:19:18.574 : en:00:19:18.574
    00:24:32.721 : en:00:24:32.721
    00:30:23.405 : en:00:30:23.405
    00:36:28.478 : en:00:36:28.478
    00:44:01.305 : en:00:44:01.305
    00:50:50.255 : en:00:50:50.255
    00:56:54.327 : en:00:56:54.327
    01:04:54.057 : en:01:04:54.057
    01:10:14.293 : en:01:10:14.293
    01:19:13.457 : en:01:19:13.457
    01:25:41.178 : en:01:25:41.178
    01:34:53.771 : en:01:34:53.771
    01:41:48.561 : en:01:41:48.561
    01:48:31.838 : en:01:48:31.838
    01:57:48.812 : en:01:57:48.812
    02:03:04.418 : en:02:03:04.418

    Скриншоты для ознакомления

    Размер скачиваемого торрента: 58.37 GB (62676216296 Bytes)

    Форсаж. Коллекция/Fast Furious. The Collection (2001-2013) BDRip 720p торрент скачать бесплатно
    загрузка...
    Рейтинг →
     (голосов: 1, оценка 4/5, голосовать можно 1 раз )

    Другие торренты по теме:

  • Форсаж 1-6. Коллекция / The Fast And The Furious 1-6. Collection (2001-2013) BDRip | Лицензия скачать через торрент бесплатно
  • Форсаж 1-7 (Коллекция) / The Fast And The Furious 1- 7 (Collection) / 2001-2015 / АП (Есарев), СТ / BDRip (AVC)
  • Форсаж 1-8 (Коллекция) / The Fast And The Furious 1-8 (Collection) / 2001-2017 / ДБ / HDRip


    • Комментарии (0):

      Информация

      Информация

        Посетители, находящиеся в группе Гости, не могут оставлять комментарии в данной новости.

        ↓ Меню



        ↓ Опрос

        А Вы добавили сайт в закладки?
        Да
        Не


        Top 10 за месяц (Фильмы)