.
Авторизация | Регистрация
Хочешь лучшие торренты? Добавь свой email!
Добавить




7500 / 7500 (2014) BDRip 720p | L1 скачать торрент бесплатно

Опубликовал: Админ | Дата: 27-02-2015, 11:10 | Просмотров: 207


Детально о кино
Русское название:7500
Русское название в мировом прокате:7500
Создали в:2014
Категория жанра:ужасы, триллер, детектив
Главный режиссер:Такаси Симидзу
Актеры:Райан Квантен, Эми Смарт, Лесли Бибб, Джейми Чунг, Скаут Тэйлор-Комптон, Никки Уилан, Джерри Феррара, Кристиан Серратос, Алекс Фрост, Рик Келли
Сюжет фильма:
Действующие лица фильма — группа пассажиров рейса Vista Pacific 7500, совершающего перелет через Тихий океан. Мерное и тоскливое течение времени во время полета внезапно нарушается, и герои сталкиваются с некой сверхъестественной силой, вносящей не самое приятное разнообразие в замкнутом пространстве.


Снималось в:Япония, США
Время просмотра:01:19:49
Перевод текста:Любительский одноголосый закадровый Хихикающий доктор
Файл
Кодек для видео:H.264
Качество фильма:BDRip 720p
Информация о видео:MPEG-4/AVC, 1280x688 (1.860), 23.976 fps ~ 5400 Kbps
Информация о звуке:
Аудио #1: AC3, 48 KHz 2 ch ~ 192 Kb/s (русский)
Аудио #2: DTS, 48 KHz 6 ch ~ 1510 Kb/s (английский)
Субтитры:немецкие .PGS zlib
MI:

Общее
Уникальный идентификатор : 186992653535550767883802064418863807067 (0x8CAD799F00F4F5D8B5F4CF8D42A77A5B)
Полное имя : Q:TorF7500.2014.720p.BluRay.x264.DTS.mkv
Формат : Matroska
Версия формата : Version 2
Размер файла : 3,97 Гбайт
Продолжительность : 1 ч. 19 м.
Общий поток : 7119 Кбит/сек
Дата кодирования : UTC 2014-11-03 04:04:57
Программа кодирования : mkvmerge v5.4.0 (;Piper;) built on Mar 10 2012 13:34:39
Библиотека кодирования : libebml v1.2.3 + libmatroska v1.3.0
Видео
Идентификатор : 1
Формат : AVC
Формат/Информация : Advanced Video Codec
Профиль формата : High@L3.1
Параметр CABAC формата : Да
Параметр ReFrames формата : 3 кадра
Режим смешивания : Header stripping
Идентификатор кодека : V_MPEG4/ISO/AVC
Продолжительность : 1 ч. 19 м.
Битрейт : 5400 Кбит/сек
Ширина : 1280 пикселей
Высота : 688 пикселей
Соотношение сторон : 1,860
Режим частоты кадров : Переменный
Частота кадров : 23,976 кадра/сек
Цветовое пространство : YUV
Субдискретизация насыщенности : 4:2:0
Битовая глубина : 8 бит
Тип развёртки : Прогрессивная
Бит/(Пиксели*Кадры) : 0.256
Размер потока : 2,94 Гбайт (74%)
Библиотека кодирования : x264 core 130 r2273 b3065e6
Настройки программы : cabac=1/ref=4/deblock=1:-1:-1/analyse=0x3:0x133/me=umh/subme=9/psy=1/psy_rd=1.00:0.00/mixed_ref=1/me_range=24/chroma_me=1/trellis=2/8x8dct=1/cqm=0/deadzone=21,11/fast_pskip=1/chroma_qp_offset=-2/threads=6/lookahead_threads=1/sliced_threads=0/nr=0/decimate=1/interlaced=0/bluray_compat=0/constrained_intra=0/bframes=6/b_pyramid=1/b_adapt=2/b_bias=0/direct=2/weightb=1/open_gop=0/weightp=2/keyint=240/keyint_min=24/scenecut=40/intra_refresh=0/rc_lookahead=40/rc=2pass/mbtree=1/bitrate=5400/ratetol=1.0/qcomp=0.60/qpmin=0/qpmax=69/qpstep=4/cplxblur=20.0/qblur=0.5/ip_ratio=1.40/aq=1:1.00
Язык : English
Default : Да
Forced : Нет
Основные цвета : BT.709-5, BT.1361, IEC 61966-2-4, SMPTE RP177
Характеристики трансфера : BT.709-5, BT.1361
Коэффициенты матрицы : BT.709-5, BT.1361, IEC 61966-2-4 709, SMPTE RP177
Аудио #1
Идентификатор : 2
Формат : AC-3
Формат/Информация : Audio Coding 3
Расширение режима : CM (complete main)
Режим смешивания : Header stripping
Идентификатор кодека : A_AC3
Продолжительность : 1 ч. 19 м.
Вид битрейта : Постоянный
Битрейт : 192 Кбит/сек
Каналы : 2 канала
Расположение каналов : Front: L R
Частота : 48,0 КГц
Битовая глубина : 16 бит
Метод сжатия : С потерями
Размер потока : 110 Мбайт (3%)
Заголовок : XiXiDoc
Язык : Russian
Default : Да
Forced : Нет
Аудио #2
Идентификатор : 3
Формат : DTS
Формат/Информация : Digital Theater Systems
Режим смешивания : Header stripping
Идентификатор кодека : A_DTS
Продолжительность : 1 ч. 19 м.
Вид битрейта : Постоянный
Битрейт : 1510 Кбит/сек
Каналы : 6 каналов
Расположение каналов : Front: L C R, Side: L R, LFE
Частота : 48,0 КГц
Битовая глубина : 16 бит
Метод сжатия : С потерями
Размер потока : 862 Мбайт (21%)
Язык : English
Default : Нет
Forced : Нет
Текст #1
Идентификатор : 4
Формат : PGS
Режим смешивания : zlib
Идентификатор кодека : S_HDMV/PGS
Идентификатор кодека/Информация : The same subtitle format used on BDs/HD-DVDs
Язык : German
Default : Нет
Forced : Нет
Текст #2
Идентификатор : 5
Формат : PGS
Режим смешивания : zlib
Идентификатор кодека : S_HDMV/PGS
Идентификатор кодека/Информация : The same subtitle format used on BDs/HD-DVDs
Язык : German
Default : Нет
Forced : Нет
Меню
00:00:00.000 : en:Chapter 1
00:07:42.187 : en:Chapter 2
00:16:42.643 : en:Chapter 3
00:25:24.831 : en:Chapter 4
00:32:41.851 : en:Chapter 5
00:45:08.264 : en:Chapter 6
00:52:07.683 : en:Chapter 7
00:59:56.610 : en:Chapter 8
01:09:38.649 : en:Chapter 9
01:16:17.756 : en:Chapter 10

Семпл
Скриншоты для ознакомления

Размер скачиваемого торрента: 3.97 GB (4261586683 Bytes)

7500/7500 (2014) BDRip 720p | L1 торрент скачать бесплатно
загрузка...
Рейтинг →
 (голосов: 1, оценка 4/5, голосовать можно 1 раз )

Другие торренты по теме:

  • 7500 / 7500 (2014) HDRip | L1 скачать через торрент бесплатно
  • 7500 / 7500 (2014) HDRip-AVC от АРХАНГЕЛ | L1
  • 7500 / 7500 (2014) BDRip 1080p от CINEMANIA | L1 скачать через торрент бесплатно


    • Комментарии (0):

      Информация

      Информация

        Посетители, находящиеся в группе Гости, не могут оставлять комментарии в данной новости.

        ↓ Меню



        ↓ Опрос

        А Вы добавили сайт в закладки?
        Да
        Не


        Top 10 за месяц (Фильмы)