.
Авторизация | Регистрация
Хочешь лучшие торренты? Добавь свой email!
Добавить
» » Укради мою жену / Life of Crime (2013) HDRip от ExKinoRay | Лицензия скачать торрент бесплатно




    Укради мою жену / Life of Crime (2013) HDRip от ExKinoRay | Лицензия скачать торрент бесплатно

    Опубликовал: Админ | Дата: 27-02-2015, 11:10 | Просмотров: 195


    Детально о кино
    Русское название:Укради мою жену
    Русское название в мировом прокате:Life of Crime
    Создали в:2014
    Категория жанра:Комедия, криминал
    Главный режиссер:Дэниэл Шехтер
    Актеры:Дженнифер Энистон, Мос Деф, Айла Фишер, Уилл Форте, Марк Бун Джуниор, Тим Роббинс, Джон Хоукс, Клеа Льюис, Чарли Тахэн, Кевин Корригэн
    Сюжет:Орделл Робб и Луис Гарра познакомились за решеткой, сев за одинаковые преступления — угон. Теперь они на свободе и готовят крупное дело: похищение жены детройтского девелопера с целью получения выкупа. Но им и в голову не могло прийти, что бедный, как церковная мышь, супруг не захочет вызволять благоверную. И тогда наступает время для запасного плана: настоящего убийства не без помощи жаждущей мести домохозяйки.

    Снималось в:США, Abbolita Productions
    Время просмотра:01:40:49
    Перевод текста:Дублированный
    Файл
    Кодек для видео:XviD
    Качество фильма:HDRip
    Информация о видео:688x288, 911 kbps avg, 23.976 fps,
    Информация о звуке:48 kHz, МР3, 2 ch, 128 Кбит/с
    MI(for engie)
    Общее
    Полное имя : D:ВидеоUkrad1.mou.Genu.2014.D.HRip.by Vovan366(ExKinoRay).avi
    Формат : AVI
    Формат/Информация : Audio Video Interleave
    Размер файла : 756 Мбайт
    Продолжительность : 1 ч. 40 м.
    Общий поток : 1048 Кбит/сек
    Программа кодирования : VirtualDubMod 1.5.10.3 | www.virtualdub-fr.org || (build 2550/release)
    Библиотека кодирования : VirtualDubMod build 2550/release
    Видео
    Идентификатор : 0
    Формат : MPEG-4 Visual
    Профиль формата : Advanced Simple@L5
    Параметр BVOP формата : 2
    Параметр QPel формата : Нет
    Параметр GMC формата : Без точки перехода
    Параметр матрицы формата : Default (MPEG)
    Идентификатор кодека : XVID
    Идентификатор кодека/Подсказка : XviD
    Продолжительность : 1 ч. 40 м.
    Битрейт : 911 Кбит/сек
    Ширина : 688 пикселей
    Высота : 288 пикселей
    Соотношение сторон : 2,40:1
    Частота кадров : 23,976 кадра/сек
    Цветовое пространство : YUV
    Субдискретизация насыщенности : 4:2:0
    Битовая глубина : 8 бит
    Тип развёртки : Прогрессивная
    Метод сжатия : С потерями
    Бит/(Пиксели*Кадры) : 0.192
    Размер потока : 657 Мбайт (87%)
    Библиотека кодирования : XviD 1.2.1 (UTC 2008-12-04)
    Аудио
    Идентификатор : 1
    Формат : MPEG Audio
    Версия формата : Version 1
    Профиль формата : Layer 3
    Идентификатор кодека : 55
    Идентификатор кодека/Подсказка : MP3
    Продолжительность : 1 ч. 40 м.
    Вид битрейта : Постоянный
    Битрейт : 128 Кбит/сек
    Каналы : 2 канала
    Частота : 48,0 КГц
    Метод сжатия : С потерями
    Размер потока : 92,3 Мбайт (12%)
    Выравнивание : Соединение по промежуткам
    Продолжительность промежутка : 42 мс. (1,00 видеокадр)
    Время предзагрузки промежутка : 504 мс.
    Библиотека кодирования : LAME3.99r
    Залил: Wazzzup RK
    Размер скачиваемого торрента: 755.61 MB (792315904 Bytes)


    Укради мою жену/Life of Crime (2013) HDRip от ExKinoRay | Лицензия торрент скачать бесплатно
    загрузка...
    Рейтинг →
     (голосов: 1, оценка 4/5, голосовать можно 1 раз )

    Другие торренты по теме:

  • Укради мою жену / Life of Crime
  • Укради мою жену / Life of Crime (2014) WEB-DL 720p | L
  • Укради мою жену / Life of Crime (2013) BDRip от Twi7ter | D | iTunes скачать через торрент бесплатно
  • Укради мою жену / Life of Crime (2013) HDRip от ExKinoRay | iTunes
  • Укради мою жену / Life of Crime (2014) BDRip 1080p
  • Укради мою жену / Life of Crime (2014) BDRip 720p | iTunes
  • Укради мою жену / Life of Crime (2013) BD-Remux | iTunes | D скачать через торрент бесплатно
  • Укради мою жену / Life of Crime (2014) HDRip от Scarabey | iTunes скачать через торрент бесплатно


    • Комментарии (0):

      Информация

      Информация

        Посетители, находящиеся в группе Гости, не могут оставлять комментарии в данной новости.

        ↓ Меню



        ↓ Опрос

        А Вы добавили сайт в закладки?
        Да
        Не


        Top 10 за месяц (Фильмы)