.
Авторизация | Регистрация
Хочешь лучшие торренты? Добавь свой email!
Добавить
» » Навстречу шторму / Into the Storm (2014) BDRemux 1080p | iTunes скачать торрент бесплатно




    Навстречу шторму / Into the Storm (2014) BDRemux 1080p | iTunes скачать торрент бесплатно

    Опубликовал: Админ | Дата: 27-02-2015, 11:10 | Просмотров: 168



    Детально о кино
    Русское название: Навстречу шторму
    Русское название в мировом прокате: Into the Storm
    Создали в: 2014
    Категория жанра:фантастика, боевик, приключения
    Главный режиссер: Стивен Куэйл
    Актеры: Ричард Армитедж, Сара Уэйн Кэллис, Мэтт Уолш, Макс Дикон, Нэйтан Кресс, Алисия Дебнем Кери, Арлен Эскарпета, Джереми Самптер, Ли Уитэйкер, Кайл Дэвис

    Сюжет фильма:Всего лишь за один день невероятное нашествие смерчей практически уничтожило городок Сильверстон. Все его жители были отданы на растерзание непредсказуемым и смертельно опасным торнадо, и при этом метеорологи говорят, что худшее еще впереди. Большинство ищут убежища, в то время как немногие смельчаки идут навстречу стихии, испытывая себя: насколько далеко сможет зайти охотник за торнадо ради одного единственного — зато какого! — снимка.



    Снималось в: США/Broken Road Productions, New Line Cinema, Village Roadshow
    Время просмотра: 01:29:17
    Перевод текста:Профессиональный(полное дублирование)-iTunes

    Файл
    Качество фильма:BDRemux 1080p
    Тип видео: MKV
    Информация о видео: MPEG4/AVC, 1920x1080 (16:9), 18.3 Мбит/сек, 23.976 кадра/сек
    Информация о звуке 1: AC3, 6 каналов, 384 Кбит/сек |Русский
    Информация о звуке 2: DTS, 6 каналов, 1509 Кбит/сек |Английский
    Информация о звуке 3: AC3, 6 каналов, 640 Кбит/сек |Английский
    Субтитры: Русские (Forced, Full), украинские, английские (Full, SDH)
    Навигация по главам: Есть

    MediaInfo:
    Общее
    Уникальный идентификатор : 236551806457789917620701115289937397818 (0xB1F63882C887E96796F9F76AF1A0483A)
    Полное имя : Into the Storm. (2014) BDRemux 1080p.mkv
    Формат : Matroska
    Версия формата : Version 2
    Размер файла : 13,3 Гбайт
    Продолжительность : 1 ч. 29 м.
    Режим общего битрейта : Переменный
    Общий поток : 21,3 Мбит/сек
    Название фильма : Into the Storm. 2014
    Дата кодирования : UTC 2014-11-01 13:16:10
    Программа кодирования : mkvmerge v5.8.0 (;No Sleep/Pillow;) built on Sep 2 2012 15:37:04
    Библиотека кодирования : libebml v1.2.3 + libmatroska v1.3.0

    Видео
    Идентификатор : 1
    Формат : AVC
    Формат/Информация : Advanced Video Codec
    Профиль формата : High@L4.1
    Параметр CABAC формата : Да
    Параметр ReFrames формата : 2 кадра
    Параметр GOP формата : M=1, N=10
    Идентификатор кодека : V_MPEG4/ISO/AVC
    Продолжительность : 1 ч. 29 м.
    Вид битрейта : Переменный
    Битрейт : 18,3 Мбит/сек
    Ширина : 1920 пикселей
    Высота : 1080 пикселей
    Соотношение сторон : 16:9
    Режим частоты кадров : Постоянный
    Частота кадров : 23,976 кадра/сек
    Цветовое пространство : YUV
    Субдискретизация насыщенности : 4:2:0
    Битовая глубина : 8 бит
    Тип развёртки : Прогрессивная
    Бит/(Пиксели*Кадры) : 0.368
    Размер потока : 11,4 Гбайт (86%)
    Заголовок : BuR
    Язык : English
    Default : Да
    Forced : Нет

    Аудио #1
    Идентификатор : 2
    Формат : AC-3
    Формат/Информация : Audio Coding 3
    Расширение режима : CM (complete main)
    Параметр Endianness формата : Big
    Идентификатор кодека : A_AC3
    Продолжительность : 1 ч. 29 м.
    Вид битрейта : Постоянный
    Битрейт : 384 Кбит/сек
    Каналы : 6 каналов
    Расположение каналов : Front: L C R, Side: L R, LFE
    Частота : 48,0 КГц
    Битовая глубина : 16 бит
    Метод сжатия : С потерями
    Размер потока : 245 Мбайт (2%)
    Заголовок : D | iTunes
    Язык : Russian
    Default : Да
    Forced : Нет

    Аудио #2
    Идентификатор : 3
    Формат : DTS
    Формат/Информация : Digital Theater Systems
    Режим : 16
    Параметр Endianness формата : Big
    Идентификатор кодека : A_DTS
    Продолжительность : 1 ч. 29 м.
    Вид битрейта : Постоянный
    Битрейт : 1509 Кбит/сек
    Каналы : 6 каналов
    Расположение каналов : Front: L C R, Side: L R, LFE
    Частота : 48,0 КГц
    Битовая глубина : 24 бит
    Метод сжатия : С потерями
    Размер потока : 964 Мбайт (7%)
    Заголовок : DTS | Original
    Язык : English
    Default : Нет
    Forced : Нет

    Аудио #3
    Идентификатор : 4
    Формат : AC-3
    Формат/Информация : Audio Coding 3
    Расширение режима : CM (complete main)
    Параметр Endianness формата : Big
    Идентификатор кодека : A_AC3
    Продолжительность : 1 ч. 29 м.
    Вид битрейта : Постоянный
    Битрейт : 640 Кбит/сек
    Каналы : 6 каналов
    Расположение каналов : Front: L C R, Side: L R, LFE
    Частота : 48,0 КГц
    Битовая глубина : 16 бит
    Метод сжатия : С потерями
    Размер потока : 409 Мбайт (3%)
    Заголовок : AC3 | Original
    Язык : English
    Default : Нет
    Forced : Нет

    Текст #1
    Идентификатор : 5
    Формат : UTF-8
    Идентификатор кодека : S_TEXT/UTF8
    Идентификатор кодека/Информация : UTF-8 Plain Text
    Заголовок : Forced
    Язык : Russian
    Default : Да
    Forced : Да

    Текст #2
    Идентификатор : 6
    Формат : UTF-8
    Идентификатор кодека : S_TEXT/UTF8
    Идентификатор кодека/Информация : UTF-8 Plain Text
    Заголовок : Full
    Язык : Russian
    Default : Нет
    Forced : Нет

    Текст #3
    Идентификатор : 7
    Формат : UTF-8
    Идентификатор кодека : S_TEXT/UTF8
    Идентификатор кодека/Информация : UTF-8 Plain Text
    Заголовок : Full
    Язык : Ukrainian
    Default : Нет
    Forced : Нет

    Текст #4
    Идентификатор : 8
    Формат : UTF-8
    Идентификатор кодека : S_TEXT/UTF8
    Идентификатор кодека/Информация : UTF-8 Plain Text
    Заголовок : Full
    Язык : English
    Default : Нет
    Forced : Нет

    Текст #5
    Идентификатор : 9
    Формат : UTF-8
    Идентификатор кодека : S_TEXT/UTF8
    Идентификатор кодека/Информация : UTF-8 Plain Text
    Заголовок : SDH
    Язык : English
    Default : Нет
    Forced : Нет

    Меню
    00:00:00.000 : en:Chapter 01
    00:09:37.159 : en:Chapter 02
    00:19:57.988 : en:Chapter 03
    00:29:52.207 : en:Chapter 04
    00:38:48.200 : en:Chapter 05
    00:47:58.709 : en:Chapter 06
    01:00:38.926 : en:Chapter 07
    01:08:59.176 : en:Chapter 08
    01:19:59.669 : en:Chapter 09
    01:23:58.324 : en:Chapter 10


    Размер скачиваемого торрента: 13.27 GB (14247180641 Bytes)

    Навстречу шторму/Into the Storm (2014) BDRemux 1080p | iTunes торрент скачать бесплатно
    загрузка...
    Рейтинг →
     (голосов: 1, оценка 3/5, голосовать можно 1 раз )

    Другие торренты по теме:

  • Навстречу шторму (2014)
  • Навстречу шторму / Into the Storm (2014) CAMRip скачать через торрент бесплатно
  • OST - Навстречу шторму / Into The Storm (Original Motion Picture Soundtrack) MP3 от AGR - Generalfilm
  • Навстречу шторму / Into the Storm (2014) WEB-DL 720p | iTunes
  • Навстречу шторму / Into the Storm (2014) WEB-DLRip | iTunes
  • Навстречу шторму / Into the Storm (2014) WEB-DL 1080p | iTunes скачать через торрент бесплатно
  • Навстречу шторму / Into the Storm (2014) WEB-DLRip-AVC от ExKinoRay | iTunes скачать через торрент бесплатно
  • Навстречу шторму / Into the Storm (2014) WEB-DLRip | iTunes скачать через торрент бесплатно


    • Комментарии (0):

      Информация

      Информация

        Посетители, находящиеся в группе Гости, не могут оставлять комментарии в данной новости.

        ↓ Меню



        ↓ Опрос

        А Вы добавили сайт в закладки?
        Да
        Не


        Top 10 за месяц (Фильмы)