.
Авторизация | Регистрация
Хочешь лучшие торренты? Добавь свой email!
Добавить
» » В смертельной опасности / On Deadly Ground (1994) WEB-DLRip от Leon-masl | D скачать через торрент бесплатно




    В смертельной опасности / On Deadly Ground (1994) WEB-DLRip от Leon-masl | D скачать через торрент бесплатно

    Опубликовал: Админ | Дата: 27-02-2015, 11:10 | Просмотров: 214


    Детально о кино
    Русское название:В смертельной опасности
    Русское название в мировом прокате:On Deadly Ground
    Создали в:1994
    Категория жанра:боевик, триллер, приключения
    Главный режиссер:Стивен Сигал
    Актеры:Стивен Сигал,Майкл Кейн,Джоан Чэнь,Джон К. МакГинли, Р. Ли Эрми, Шэри Шаттак,Билли Боб Торнтон, Ричард Хэмилтон, Чиф Ирвин Бринк, Апангулук Чарли Кайрайуак
    Сюжет фильма:
    Форрест Тафт – это человек, который всегда выбирает только одну сторону. Тафт – специалист по борьбе с пожарами нефтяных скважин, но ему приходится вступать в еще более горячую битву, когда он сталкивается с Майклом Дженнингсом – хозяином нефтяной компании, на одной из буровых которой произошла авария, и нефть выливается в океан.
    Но нажива для таких людей превыше всего. И тогда Тафт дает им понять: если они причинят вред земле, которую он любит, они – в смертельной опасности.

    Снималось в:США
    Киностудия:Seagal/Nasso Productions, Warner Bros. Pictures
    Время просмотра:01:41:00
    Перевод текста:Профессиональный (полное дублирование)|Мост-Видео|
    Файл
    Кодек для видео:XviD
    Качество фильма:WEB-DLRip
    Информация о видео:720x304, 23,976 fps, 1665 kbps
    Информация о звуке:48 kHz, AC3, 3/2 (L,C,R,l,r) + LFE ch, ~384.00 kbps
    MI
    Общее
    Полное имя : On.Deadly.Ground.1994.WEB-DLRip.avi
    Формат : AVI
    Формат/Информация : Audio Video Interleave
    Размер файла : 1,46 Гбайт
    Продолжительность : 1 ч. 41 м.
    Общий поток : 2058 Кбит/сек
    Программа кодирования : VirtualDubMod 1.5.10.3 | www.virtualdub-fr.org || (build 2550/release)
    Библиотека кодирования : VirtualDubMod build 2550/release
    Видео
    Идентификатор : 0
    Формат : MPEG-4 Visual
    Профиль формата : Advanced Simple@L5
    Параметр BVOP формата : 1
    Параметр QPel формата : Нет
    Параметр GMC формата : Без точки перехода
    Параметр матрицы формата : Выборочная
    Идентификатор кодека : XVID
    Идентификатор кодека/Подсказка : XviD
    Продолжительность : 1 ч. 41 м.
    Битрейт : 1665 Кбит/сек
    Ширина : 720 пикс.
    Высота : 304 пикс.
    Соотношение сторон : 2,35:1
    Частота кадров : 23,976 кадр/сек
    Цветовое пространство : YUV
    Подвыборка цветности : 4:2:0
    Битовая глубина : 8 бит
    Тип развёртки : Прогрессивная
    Метод сжатия : С потерями
    Бит/(Пиксели*Кадры) : 0.317
    Размер потока : 1,18 Гбайт (81%)
    Библиотека кодирования : XviD 73
    Аудио
    Идентификатор : 1
    Формат : AC-3
    Формат/Информация : Audio Coding 3
    Расширение режима : CM (complete main)
    Идентификатор кодека : 2000
    Продолжительность : 1 ч. 41 м.
    Вид битрейта : Постоянный
    Битрейт : 384 Кбит/сек
    Канал(ы) : 6 канала(ов)
    Расположение каналов : Front: L C R, Side: L R, LFE
    Частота : 48,0 КГц
    Битовая глубина : 16 бит
    Метод сжатия : С потерями
    Размер потока : 279 Мбайт (19%)
    Выравнивание : Разделение по промежуткам
    Продолжительность промежутка : 42 мс. (1,00 видеокадр)
    Время предзагрузки промежутка : 500 ms
    Скриншоты для ознакомления

    Релиз подготовил:Leon-masl
    Залил: leon-masl
    Размер скачиваемого торрента: 1.46 GB (1569280000 Bytes)

    В смертельной опасности/On Deadly Ground (1994) WEB-DLRip от Leon-masl | D скачать через торрент бесплатно
    загрузка...
    Рейтинг →
     (голосов: 1, оценка 4/5, голосовать можно 1 раз )

    Другие торренты по теме:

  • В смертельной опасности / On Deadly Ground (1994) DVDRip от KinoRay Sheikn скачать через торрент бесплатно
  • Джордан Кралл - В щупальцах смертельной гонки (2017) MP3


    • Комментарии (0):

      Информация

      Информация

        Посетители, находящиеся в группе Гости, не могут оставлять комментарии в данной новости.

        ↓ Меню



        ↓ Опрос

        А Вы добавили сайт в закладки?
        Да
        Не


        Top 10 за месяц (Фильмы)