.
Авторизация | Регистрация
Хочешь лучшие торренты? Добавь свой email!
Добавить
» » Типа копы / Lets Be Cops (2014) BDRip 1080p | Чистый звук скачать через торрент бесплатно




    Типа копы / Lets Be Cops (2014) BDRip 1080p | Чистый звук скачать через торрент бесплатно

    Опубликовал: Админ | Дата: 27-02-2015, 11:10 | Просмотров: 175



    Детально о кино
    Русское название: Типа копы
    Русское название в мировом прокате: Let;s Be Cops
    Создали в: 2014
    Категория жанра:комедия, криминал
    Главный режиссер: Люк Гринфилд
    Актеры: Дэймон Уайанс мл., Джейк Джонсон, Роб Риггл, Нина Добрев, Джеймс Д’Арси, Энди Гарсиа, Кигэн-Майкл Ки, Джон Лажуа, Том Мардиросян, Наташа Леггеро

    Сюжет фильма:Получив приглашение на костюмированную вечеринку, два нерадивых приятеля решают нарядиться полицейскими, и вдруг их популярность среди гостей подскакивает до максимума. На волне успеха парни продолжают игру. Но неожиданно псевдокопы оказываются впутанными в реальную криминальную историю, и теперь им придется применить свои фальшивые значки по полной.



    Снималось в: США
    Время просмотра: 01:44:28
    Перевод текста:Профессиональный(полное дублирование)-Чистый звук

    Файл
    Качество фильма:BDRip 1080p
    Тип видео: MKV
    Информация о видео: MPEG4/AVC, 1920х1036 (1.85:1), 10.4 Мбит/сек, 23.976 кадра/сек
    Информация о звуке 1: AC3, 2 канала, 384 Кбит/сек |Русский
    Информация о звуке 2: AC3, 6 каналов, 640 Кбит/сек |Английский
    Субтитры: Английские
    Навигация по главам: Есть

    MediaInfo:
    Общее
    Уникальный идентификатор : 206580285198202292872807234907625430304 (0x9B69EA6C842C20F384366B70F46F1D20)
    Полное имя : Lets Be Cops. (2014) BDRip 1080p.mkv
    Формат : Matroska
    Версия формата : Version 2
    Размер файла : 8,35 Гбайт
    Продолжительность : 1 ч. 44 м.
    Общий поток : 11,4 Мбит/сек
    Название фильма : Lets Be Cops. 2014
    Дата кодирования : UTC 2014-10-28 13:43:30
    Программа кодирования : mkvmerge v5.8.0 (;No Sleep/Pillow;) built on Sep 2 2012 15:37:04
    Библиотека кодирования : libebml v1.2.3 + libmatroska v1.3.0

    Видео
    Идентификатор : 1
    Формат : AVC
    Формат/Информация : Advanced Video Codec
    Профиль формата : High@L4.1
    Параметр CABAC формата : Да
    Параметр ReFrames формата : 4 кадра
    Идентификатор кодека : V_MPEG4/ISO/AVC
    Продолжительность : 1 ч. 44 м.
    Битрейт : 10,4 Мбит/сек
    Ширина : 1920 пикселей
    Высота : 1036 пикселей
    Соотношение сторон : 1,85:1
    Режим частоты кадров : Постоянный
    Частота кадров : 23,976 кадра/сек
    Цветовое пространство : YUV
    Субдискретизация насыщенности : 4:2:0
    Битовая глубина : 8 бит
    Тип развёртки : Прогрессивная
    Бит/(Пиксели*Кадры) : 0.219
    Размер потока : 7,44 Гбайт (89%)
    Заголовок : CHD
    Библиотека кодирования : x264 core 142 r2431 ac76440
    Настройки программы : cabac=1/ref=4/deblock=1:-3:-3/analyse=0x3:0x113/me=umh/subme=10/psy=1/psy_rd=1.00:0.05/mixed_ref=1/me_range=32/chroma_me=1/trellis=2/8x8dct=1/cqm=0/deadzone=21,11/fast_pskip=0/chroma_qp_offset=-2/threads=18/lookahead_threads=1/sliced_threads=0/nr=0/decimate=1/interlaced=0/bluray_compat=0/constrained_intra=0/bframes=5/b_pyramid=2/b_adapt=2/b_bias=0/direct=3/weightb=1/open_gop=0/weightp=2/keyint=250/keyint_min=23/scenecut=40/intra_refresh=0/rc=2pass/mbtree=0/bitrate=10425/ratetol=1.0/qcomp=0.70/qpmin=0/qpmax=69/qpstep=4/cplxblur=20.0/qblur=0.5/ip_ratio=1.40/pb_ratio=1.30/aq=2:0.90
    Язык : English
    Default : Да
    Forced : Нет

    Аудио #1
    Идентификатор : 2
    Формат : AC-3
    Формат/Информация : Audio Coding 3
    Расширение режима : CM (complete main)
    Параметр Endianness формата : Big
    Идентификатор кодека : A_AC3
    Продолжительность : 1 ч. 44 м.
    Вид битрейта : Постоянный
    Битрейт : 384 Кбит/сек
    Каналы : 2 канала
    Расположение каналов : Front: L R
    Частота : 48,0 КГц
    Битовая глубина : 16 бит
    Метод сжатия : С потерями
    Размер потока : 287 Мбайт (3%)
    Заголовок : Line
    Язык : Russian
    Default : Да
    Forced : Нет

    Аудио #2
    Идентификатор : 3
    Формат : AC-3
    Формат/Информация : Audio Coding 3
    Расширение режима : CM (complete main)
    Параметр Endianness формата : Big
    Идентификатор кодека : A_AC3
    Продолжительность : 1 ч. 44 м.
    Вид битрейта : Постоянный
    Битрейт : 640 Кбит/сек
    Каналы : 6 каналов
    Расположение каналов : Front: L C R, Side: L R, LFE
    Частота : 48,0 КГц
    Битовая глубина : 16 бит
    Метод сжатия : С потерями
    Размер потока : 478 Мбайт (6%)
    Заголовок : Original
    Язык : English
    Default : Нет
    Forced : Нет

    Текст
    Идентификатор : 4
    Формат : UTF-8
    Идентификатор кодека : S_TEXT/UTF8
    Идентификатор кодека/Информация : UTF-8 Plain Text
    Заголовок : Full
    Язык : English
    Default : Нет
    Forced : Нет

    Меню
    00:00:00.000 : en:00:00:00.000
    00:01:58.785 : en:00:01:58.785
    00:03:34.798 : en:00:03:34.798
    00:07:24.653 : en:00:07:24.653
    00:11:11.629 : en:00:11:11.629
    00:13:44.282 : en:00:13:44.282
    00:17:39.100 : en:00:17:39.100
    00:19:59.657 : en:00:19:59.657
    00:23:06.135 : en:00:23:06.135
    00:26:43.602 : en:00:26:43.602
    00:31:26.927 : en:00:31:26.927
    00:33:19.664 : en:00:33:19.664
    00:39:32.203 : en:00:39:32.203
    00:41:30.655 : en:00:41:30.655
    00:44:34.422 : en:00:44:34.422
    00:48:47.925 : en:00:48:47.925
    00:52:29.146 : en:00:52:29.146
    00:54:43.322 : en:00:54:43.322
    00:59:54.591 : en:00:59:54.591
    01:02:48.014 : en:01:02:48.014
    01:06:55.595 : en:01:06:55.595
    01:09:15.735 : en:01:09:15.735
    01:10:45.241 : en:01:10:45.241
    01:14:03.022 : en:01:14:03.022
    01:18:00.217 : en:01:18:00.217
    01:21:58.664 : en:01:21:58.664
    01:24:54.965 : en:01:24:54.965
    01:28:35.393 : en:01:28:35.393
    01:30:09.571 : en:01:30:09.571
    01:33:38.029 : en:01:33:38.029
    01:37:09.449 : en:01:37:09.449
    01:38:32.115 : en:01:38:32.115



    Релиз подготовил:
    Размер скачиваемого торрента: 8.35 GB (8967222963 Bytes)

    Типа копы/Lets Be Cops (2014) BDRip 1080p | Чистый звук скачать через торрент бесплатно
    загрузка...
    Рейтинг →
     (голосов: 1, оценка 3/5, голосовать можно 1 раз )

    Другие торренты по теме:

  • Фейковые копы / Типа копы (2014)
  • Типа копы / Lets Be Cops скачать через торрент бесплатно
  • Типа копы / Lets Be Cops (2014) CAMRip скачать через торрент бесплатно
  • Типа копы / Lets Be Cops (2014) BDRip-AVC от Leonardo and Scarabey | Чистый звук скачать через торрент бесплатно
  • Типа копы / Lets Be Cops (2014) BDRip 1080p от Leonardo and Scarabey | Чистый звук скачать через торрент бесплатно
  • Типа копы / Lets Be Cops (2014) BDRip 720p от Leonardo and Scarabey | Чистый звук скачать через торрент бесплатно
  • Типа копы / Lets Be Cops (2014) BDRip-AVC от MediaClub | Чистый звук скачать через торрент бесплатно
  • Типа копы / Lets Be Cops (2014) HDRip | Чистый звук скачать через торрент бесплатно


    • Комментарии (0):

      Информация

      Информация

        Посетители, находящиеся в группе Гости, не могут оставлять комментарии в данной новости.

        ↓ Меню



        ↓ Опрос

        А Вы добавили сайт в закладки?
        Да
        Не


        Top 10 за месяц (Фильмы)