.
Авторизация | Регистрация
Хочешь лучшие торренты? Добавь свой email!
Добавить
» » Этим утром в Нью-Йорке / The Angriest Man in Brooklyn (2014) DVDRip-AVC от New-Team | D | Лицензия скачать через торрент бесплатно




    Этим утром в Нью-Йорке / The Angriest Man in Brooklyn (2014) DVDRip-AVC от New-Team | D | Лицензия скачать через торрент бесплатно

    Опубликовал: Админ | Дата: 27-02-2015, 11:10 | Просмотров: 105


    Детально о кино
    Русское название:Этим утром в Нью-Йорке
    Русское название в мировом прокате:The Angriest Man in Brooklyn
    Создали в:2014
    Категория жанра:Драма, комедия
    Главный режиссер:Фил Олден Робинсон
    Актеры:Робин Уильямс, Мила Кунис, Питер Динклэйдж, Мелисса Лео, Хамиш Линклэйтер, Саттон Фостер, Джеймс Эрл Джонс, Ричард Кайнд, Дэниэл Рэймонт, Крис Гезерд
    Сюжет фильма:
    Женщина-врач по ошибке сообщает одному вредному пациенту, что ему осталось жить полтора часа. Стремясь исправить свою адскую оплошность, она устремляется на поиски человека, который решил, пока не поздно, исправить все ошибки, совершенные им в жизни.

    Снималось в:США
    Киностудия:AMIB Productions, Cargo Entertainment, Films de Force Majeure, Landscape Entertainment, MICA Entertainment, Prominent Media Group, Vedette Finance
    Время просмотра:01:29:01
    Перевод текста:Дублированный Лицензия
    Файл
    Кодек для видео:MPEG-4 AVC
    Качество фильма:DVDRip (AVC)
    Информация о видео:1891 Кбит/с, 720x552@1024x552
    Информация о звуке:AC3, 6 ch, 448 Кбит/с
    Инфо-файл
    Инфо-файл
    Общее
    Полное имя : Etim.utrom.v.Nyu-Yorke.2014.D.DVDRip-AVC_New-Team_by_keeper.mkv
    Формат : Matroska
    Версия формата : Version 4/Version 2
    Размер файла : 1,46 Гбайт
    Продолжительность : 1 ч. 29 м.
    Общий поток : 2341 Кбит/сек
    Дата кодирования : UTC 2014-10-25 05:32:23
    Программа кодирования : mkvmerge v7.2.0 (;On Every Street;) 64bit built on Sep 13 2014 15:52:10
    Библиотека кодирования : libebml v1.3.0 + libmatroska v1.4.1
    DURATION : 01:29:01.056000000
    NUMBER_OF_FRAMES : 166908
    NUMBER_OF_BYTES : 299099136
    _STATISTICS_WRITING_APP : mkvmerge v7.2.0 (;On Every Street;) 64bit built on Sep 13 2014 15:52:10
    _STATISTICS_WRITING_DATE_UTC : 2014-10-25 05:32:23
    _STATISTICS_TAGS : BPS DURATION NUMBER_OF_FRAMES NUMBER_OF_BYTES
    Видео
    Идентификатор : 1
    Формат : AVC
    Формат/Информация : Advanced Video Codec
    Профиль формата : High@L4.1
    Параметр CABAC формата : Да
    Параметр ReFrames формата : 8 кадров
    Идентификатор кодека : V_MPEG4/ISO/AVC
    Продолжительность : 1 ч. 29 м.
    Битрейт : 1891 Кбит/сек
    Ширина : 720 пикселей
    Высота : 552 пикселя
    Соотношение сторон : 1,85:1
    Режим частоты кадров : Постоянный
    Частота кадров : 25,000 кадров/сек
    Цветовое пространство : YUV
    Субдискретизация насыщенности : 4:2:0
    Битовая глубина : 8 бит
    Тип развёртки : Прогрессивная
    Бит/(Пиксели*Кадры) : 0.190
    Размер потока : 1,15 Гбайт (79%)
    Библиотека кодирования : x264 core 130 r2273 b3065e6
    Настройки программы : cabac=1/ref=8/deblock=1:-2:-1/analyse=0x3:0x113/me=umh/subme=10/psy=1/psy_rd=1.00:0.05/mixed_ref=1/me_range=32/chroma_me=1/trellis=2/8x8dct=1/cqm=0/deadzone=21,11/fast_pskip=0/chroma_qp_offset=-3/threads=9/lookahead_threads=1/sliced_threads=0/nr=0/decimate=0/interlaced=0/bluray_compat=0/constrained_intra=0/bframes=8/b_pyramid=2/b_adapt=2/b_bias=0/direct=3/weightb=1/open_gop=0/weightp=2/keyint=250/keyint_min=25/scenecut=40/intra_refresh=0/rc=2pass/mbtree=0/bitrate=1891/ratetol=1.0/qcomp=0.60/qpmin=0/qpmax=69/qpstep=4/cplxblur=20.0/qblur=0.5/ip_ratio=1.40/pb_ratio=1.30/aq=1:1.00
    Язык : English
    Default : Да
    Forced : Нет
    Аудио
    Идентификатор : 2
    Формат : AC-3
    Формат/Информация : Audio Coding 3
    Расширение режима : CM (complete main)
    Параметр Endianness формата : Big
    Идентификатор кодека : A_AC3
    Продолжительность : 1 ч. 29 м.
    Вид битрейта : Постоянный
    Битрейт : 448 Кбит/сек
    Каналы : 6 каналов
    Расположение каналов : Front: L C R, Side: L R, LFE
    Частота : 48,0 КГц
    Битовая глубина : 16 бит
    Метод сжатия : С потерями
    Размер потока : 285 Мбайт (19%)
    Язык : Russian
    Default : Да
    Forced : Нет
    Меню
    00:00:00.000 : en:00:00:00.000
    00:04:45.240 : en:00:04:45.240
    00:17:46.120 : en:00:17:46.120
    00:20:58.040 : en:00:20:58.040
    00:28:07.480 : en:00:28:07.480
    00:33:18.200 : en:00:33:18.200
    00:43:20.240 : en:00:43:20.240
    00:48:30.280 : en:00:48:30.280
    00:53:29.080 : en:00:53:29.080
    01:03:07.720 : en:01:03:07.720
    01:09:29.040 : en:01:09:29.040
    01:16:10.760 : en:01:16:10.760
    Скриншоты для ознакомления



    Релиз подготовил:
    Размер скачиваемого торрента: 1.46 GB (1562673525 Bytes)

    Этим утром в Нью-Йорке/The Angriest Man in Brooklyn (2014) DVDRip-AVC от New-Team | D | Лицензия скачать через торрент бесплатно
    загрузка...
    Рейтинг →
     (голосов: 1, оценка 5/5, голосовать можно 1 раз )

    Другие торренты по теме:

  • Этим утром в Нью-Йорке (2014) HDRip расширенная версия
  • Этим утром в Нью-Йорке / The Angriest Man in Brooklyn (2014) BDRip 720p | L2 скачать через торрент бесплатно
  • Этим утром в Нью-Йорке / The Angriest Man in Brooklyn (2014) DVD9 от New-Team | D | Лицензия скачать через торрент бесплатно
  • Этим утром в Нью-Йорке / The Angriest Man in Brooklyn (2014) DVDRip от New-Team | D | лицензия скачать через торрент бесплатно
  • Этим утром в Нью-Йорке / The Angriest Man in Brooklyn (2014) DVDRip от New-Team | D | лицензия скачать через торрент бесплатно
  • Этим утром в Нью-Йорке / The Angriest Man in Brooklyn (2014) DVD5 от New-Team | D | Лицензия
  • Этим утром в Нью-Йорке / The Angriest Man in Brooklyn (2014) BDRip 1080p от New-Team | D | лицензия
  • Этим утром в Нью-Йорке / The Angriest Man in Brooklyn (2014) BDRip 720p от New-Team | D | лицензия


    • Комментарии (0):

      Информация

      Информация

        Посетители, находящиеся в группе Гости, не могут оставлять комментарии в данной новости.

        ↓ Меню



        ↓ Опрос

        А Вы добавили сайт в закладки?
        Да
        Не


        Top 10 за месяц (Фильмы)