.
Авторизация | Регистрация
Хочешь лучшие торренты? Добавь свой email!
Добавить
» » Полиция Гавайев / Гавайи 5.0 / Hawaii Five-0 (2014) WEB-DLRip | LostFilm скачать торрент бесплатно




    Полиция Гавайев / Гавайи 5.0 / Hawaii Five-0 (2014) WEB-DLRip | LostFilm скачать торрент бесплатно

    Опубликовал: Админ | Дата: 27-02-2015, 11:10 | Просмотров: 288


    Детально о кино
    Русское название:Полиция Гавайев/Гавайи 5.0
    Русское название в мировом прокате:Hawaii Five-0
    Создали в:2014
    Категория жанра:боевик, драма, криминал
    Главный режиссер:Брэд Тернер, Дуан Кларк, Мэтт Эрл Бисли, Стив Бойум, Крис Фишер, Ларри Тенг
    Актеры:Алекс О’Локлин, Скотт Каан, Дэниэл Дэ Ким, Грейс Пак, Терри О;Куинн, Тайлор Уайли, Teilor Grubbs, Маси Ока, Клер Вандер Бум, Дэннис Чун, Марк Дакаскос
    Сюжет фильма:
    Детектив Стив МакГарретт, бывший морской офицер с массой наград, а теперь полицейский, возвращается в Оаху расследовать убийство отца. Он остается на острове, после того, как губернатор штата Гавайи убедил его возглавить новую команду. Команда будет действовать по его правилам, при поддержке губернатора, без бюрократических проволочек, и с полным иммунитетом, все это - чтобы поймать самую крупную дичь в городе.
    К МакГаррету присоединяется детектив Дэнни Данно Уильямс, недавно переведенный из Нью-Джерси полицейский, который предпочел бы небоскребы пляжам, но готов бороться с преступностью, чтобы его 8-летняя дочь чувствовала себя на островах в безопасности; и Чин Хо Келли, бывший детектив полиции Гонолулу, которого ошибочно обвинили в коррупции, и который когда-то был протеже отца МакГаррета. Двоюродная сестра Чина, Коно, прекрасная и бесстрашная уроженка островов, недавно выпустилась из академии, и рвется доказать, что она достойна места в элите департамента. МакГаррет клянется завершить дело отца, а члены нового спецотряда Five-O, может, и грызутся друг с другом, но настроены уничтожить преступность в пятидесятом штате.
    Награды

    Золотой глобус, 2011 год
    Номинации (1):
    Лучший актёр второго плана мини-сериала или фильма на ТВ (Скотт Каан)

    Содержание
    01. Некуда бежать (A;ohe Kahi e Pe;e Ai)
    02. Семьянин (Ka Makuakane)
    03. Последняя волна (Kanalu Hope Loa)
    04. Маляр (Ka No;eau)
    05. Наследие (Ho;oilina)


    Снималось в:США
    Время просмотра:~ 00:45:00
    Перевод текста:Профессиональный многоголосый закадровый, LostFilm|
    Файл
    Кодек для видео:XviD
    Качество фильма:WEB-DLRip
    Информация о видео:XviD, ~ 1831 Кбит/с, 720x400, 23.976 кадр/с
    Информация о звуке:
    Аудио#1: Russian: MP3, 2 ch, 192 Кбит/с
    MI

    Общее
    Полное имя : Hawaii.Five-0.S05E01.rus.LostFilm.TV.avi
    Формат : AVI
    Формат/Информация : Audio Video Interleave
    Размер файла : 666 Мбайт
    Продолжительность : 44 м.
    Режим общего битрейта : Переменный
    Общий поток : 2115 Кбит/сек
    Программа кодирования : Nandub v1.0rc2
    Библиотека кодирования : Nandub build 1853/release
    Видео
    Идентификатор : 0
    Формат : MPEG-4 Visual
    Профиль формата : Advanced Simple@L5
    Параметр BVOP формата : Нет
    Параметр QPel формата : Нет
    Параметр GMC формата : Без точки перехода
    Параметр матрицы формата : Default (H.263)
    Идентификатор кодека : XVID
    Идентификатор кодека/Подсказка : XviD
    Продолжительность : 44 м.
    Битрейт : 1831 Кбит/сек
    Ширина : 720 пикселей
    Высота : 400 пикселей
    Соотношение сторон : 16:9
    Частота кадров : 23,976 кадра/сек
    Цветовое пространство : YUV
    Субдискретизация насыщенности : 4:2:0
    Битовая глубина : 8 бит
    Тип развёртки : Прогрессивная
    Метод сжатия : С потерями
    Бит/(Пиксели*Кадры) : 0.265
    Размер потока : 576 Мбайт (87%)
    Библиотека кодирования : XviD 1.2.1 (UTC 2008-12-04)
    Аудио
    Идентификатор : 1
    Формат : MPEG Audio
    Версия формата : Version 1
    Профиль формата : Layer 3
    Режим : Joint stereo
    Расширение режима : MS Stereo
    Идентификатор кодека : 55
    Идентификатор кодека/Подсказка : MP3
    Продолжительность : 44 м.
    Вид битрейта : Переменный
    Битрейт : 192 Кбит/сек
    Каналы : 2 канала
    Частота : 48,0 КГц
    Метод сжатия : С потерями
    Размер потока : 60,4 Мбайт (9%)
    Выравнивание : Соединение по промежуткам
    Библиотека кодирования : LAME3.97b
    Настройки программы : -m j -V 4 -q 3 -lowpass 18.6 --abr 192

    Скриншоты для ознакомления





    Перевод: Петр Чайников
    Размер скачиваемого торрента: 3.28 GB (3519254528 Bytes)

    Полиция Гавайев/Гавайи 5.0/Hawaii Five-0 (2014) WEB-DLRip | LostFilm торрент скачать бесплатно
    загрузка...
    Рейтинг →
     (голосов: 1, оценка 4/5, голосовать можно 1 раз )

    Другие торренты по теме:

  • Полиция Гавайев / Гавайи 5.0 / Hawaii Five-0 (2012) WEB-DLRip | LostFilm
  • Полиция Гавайев / Гавайи 5.0 / Hawaii Five-0 (2013) WEB-DLRip от Youtracker | КПК скачать через торрент бесплатно
  • Полиция Гавайев / Гавайи 5.0 / Hawaii Five-0 (2013) WEB-DL 720p от HDClub | LostFilm
  • Полиция Гавайев / Гавайи 5.0 / Hawaii Five-0 (2013) WEB-DL 1080p | LostFilm
  • Полиция Гавайев / Гавайи 5.0 / Hawaii Five-0 (2013-2014) WEB-DL 1080p | LostFilm скачать через торрент бесплатно
  • Полиция Гавайев / Гавайи 5.0 / Hawaii Five-0 (2013-2014) WEB-DL 720p от HDClub | LostFilm
  • Полиция Гавайев / Гавайи 5.0 / Hawaii Five-0 (2013-2014) WEB-DLRip | LostFilm скачать через торрент бесплатно
  • Полиция Гавайев / Гавайи 5.0 / Hawaii Five-0 (2013-2014) WEB-DLRip | LostFilm


    • Комментарии (0):

      Информация

      Информация

        Посетители, находящиеся в группе Гости, не могут оставлять комментарии в данной новости.

        ↓ Меню



        ↓ Опрос

        А Вы добавили сайт в закладки?
        Да
        Не


        Top 10 за месяц (Фильмы)