.
Авторизация | Регистрация
Хочешь лучшие торренты? Добавь свой email!
Добавить
» » Планета обезьян: Революция / Dawn of the Planet of the Apes (2014) WEB-DL 720p | Звук с TS скачать торрент бесплатно




    Планета обезьян: Революция / Dawn of the Planet of the Apes (2014) WEB-DL 720p | Звук с TS скачать торрент бесплатно

    Опубликовал: Админ | Дата: 27-02-2015, 11:10 | Просмотров: 138


    Детально о кино
    Русское название:Планета обезьян: Революция
    Русское название в мировом прокате:Dawn of the Planet of the Apes
    Создали в:2014
    Категория жанра:фантастика, боевик, драма
    Главный режиссер:Мэтт Ривз
    Актеры:Энди Серкис, Джейсон Кларк, Гари Олдман, Кери Расселл, Тоби Кеббелл, Коди Смит-МакФи, Кирк Асеведо, Ник Тёрстон, Терри Нотари, Карин Коновал, Джуди Грир, Джон Эйз, Энрике Мурсиано
    Сюжет фильма:
    Численность генетически модифицированных обезьян, возглавляемых Цезарем, продолжает увеличиваться, но обезьянам угрожают люди, которым удалось выжить во время ужасной эпидемии десятилетней давности. Поначалу между соперниками устанавливается хрупкий мир, но он оказывается недолговечным. Обезьяны и люди находятся на грани войны, в ходе которой станет понятно, кто из них в будущем станет безраздельно править планетой.
    Официальный сайт
    Снималось в:США
    Киностудия:Chernin Entertainment
    Время просмотра:02:10:42
    Перевод текста:Дублированный звук с TS
    Файл
    Кодек для видео:MPEG-4 AVC
    Качество фильма:WEB-DL(720p)
    Информация о видео:MPEG-4 AVC, 4115 Кбит/с, 1280x690, 23.976 кадр/с
    Информация о звуке:Русский (AC3, 2 ch, 192 Кбит/с), английский (AC3, 6 ch, 384 Кбит/с)
    Субтитры:Английские (форсированные, на речь обезьян)
    Семпл
    Скрытый текст
    Общее
    Уникальный идентификатор : 223616998907828000867250798380557049668 (0xA83B1142E656E2E598150CD07B049F44)
    Полное имя : N:Planeta.obezjan-Revoljucija.2014.x264.WEB-DL(720p).mkv
    Формат : Matroska
    Версия формата : Version 4/Version 2
    Размер файла : 4,37 Гбайт
    Продолжительность : 2 ч. 10 м.
    Общий поток : 4786 Кбит/сек
    Дата кодирования : UTC 2010-02-22 21:41:31
    Программа кодирования : mkvmerge v5.9.0 (;On The Loose;) built on Dec 9 2012 15:37:01
    Библиотека кодирования : libebml v1.3.0 + libmatroska v1.4.0
    Видео
    Идентификатор : 1
    Формат : AVC
    Формат/Информация : Advanced Video Codec
    Профиль формата : High@L3.1
    Параметр CABAC формата : Нет
    Параметр ReFrames формата : 2 кадра
    Идентификатор кодека : V_MPEG4/ISO/AVC
    Продолжительность : 2 ч. 10 м.
    Битрейт : 4115 Кбит/сек
    Ширина : 1280 пикселей
    Высота : 690 пикселей
    Соотношение сторон : 1,85:1
    Режим частоты кадров : Постоянный
    Частота кадров : 23,976 кадра/сек
    Цветовое пространство : YUV
    Субдискретизация насыщенности : 4:2:0
    Битовая глубина : 8 бит
    Тип развёртки : Прогрессивная
    Бит/(Пиксели*Кадры) : 0.194
    Размер потока : 3,76 Гбайт (86%)
    Язык : English
    Default : Да
    Forced : Да
    Основные цвета : BT.709
    Характеристики трансфера : BT.709
    Коэффициенты матрицы : BT.709
    Аудио #1
    Идентификатор : 2
    Формат : AC-3
    Формат/Информация : Audio Coding 3
    Расширение режима : CM (complete main)
    Параметр Endianness формата : Big
    Идентификатор кодека : A_AC3
    Продолжительность : 2 ч. 10 м.
    Вид битрейта : Постоянный
    Битрейт : 192 Кбит/сек
    Каналы : 2 канала
    Расположение каналов : Front: L R
    Частота : 48,0 КГц
    Битовая глубина : 16 бит
    Метод сжатия : С потерями
    Размер потока : 179 Мбайт (4%)
    Язык : Russian
    Default : Да
    Forced : Да
    Аудио #2
    Идентификатор : 3
    Формат : AC-3
    Формат/Информация : Audio Coding 3
    Расширение режима : CM (complete main)
    Параметр Endianness формата : Big
    Идентификатор кодека : A_AC3
    Продолжительность : 2 ч. 10 м.
    Вид битрейта : Постоянный
    Битрейт : 384 Кбит/сек
    Каналы : 6 каналов
    Расположение каналов : Front: L C R, Side: L R, LFE
    Частота : 48,0 КГц
    Битовая глубина : 16 бит
    Метод сжатия : С потерями
    Размер потока : 359 Мбайт (8%)
    Язык : English
    Default : Нет
    Forced : Нет
    Текст
    Идентификатор : 4
    Формат : UTF-8
    Идентификатор кодека : S_TEXT/UTF8
    Идентификатор кодека/Информация : UTF-8 Plain Text
    Язык : English
    Default : Да
    Forced : Да
    Меню
    00:00:00.000 : en:1
    00:03:19.000 : en:2
    00:07:32.000 : en:3
    00:12:33.000 : en:4
    00:16:20.000 : en:5
    00:18:43.000 : en:6
    00:21:49.000 : en:7
    00:25:23.000 : en:8
    00:29:42.000 : en:9
    00:31:46.000 : en:10
    00:36:39.000 : en:11
    00:39:03.000 : en:12
    00:40:52.000 : en:13
    00:44:07.000 : en:14
    00:48:06.000 : en:15
    00:50:26.000 : en:16
    00:53:42.000 : en:17
    00:57:19.000 : en:18
    01:01:12.000 : en:19
    01:02:29.000 : en:20
    01:04:18.000 : en:21
    01:06:15.000 : en:22
    01:09:25.000 : en:23
    01:13:50.000 : en:24
    01:17:15.000 : en:25
    01:20:46.000 : en:26
    01:23:21.000 : en:27
    01:26:01.000 : en:28
    01:28:12.000 : en:29
    01:33:16.000 : en:30
    01:35:45.000 : en:31
    01:38:30.000 : en:32
    01:40:34.000 : en:33
    01:43:59.000 : en:34
    01:45:57.000 : en:35
    01:47:46.000 : en:36
    01:52:05.000 : en:37
    01:56:18.000 : en:38
    02:00:21.000 : en:39
    02:01:25.000 : en:40

    Скриншоты для ознакомления

    Залил: inspektors78
    Размер скачиваемого торрента: 4.37 GB (4691932069 Bytes)

    Планета обезьян: Революция/Dawn of the Planet of the Apes (2014) WEB-DL 720p | Звук с TS торрент скачать бесплатно
    загрузка...
    Рейтинг →
     (голосов: 1, оценка 4/5, голосовать можно 1 раз )

    Другие торренты по теме:

  • Планета обезьян: Война / War for the Planet of the Apes (2017) BDRemux 1080p от ExKinoRay | Лицензия
  • Планета обезьян: Война / War for the Planet of the Apes (2017) BDRip 1080p от ExKinoRay | Лицензия
  • Планета обезьян: Война / War for the Planet of the Apes (2017) BDRip-AVC от HELLYWOOD | iTunes
  • Планета обезьян / Planet of the Apes (2001) Blu-Ray CEE 1080p | Лицензия
  • Планета обезьян: Война / War for the Planet of the Apes (2017) BDRip 720p от Scarabey | Лицензия
  • Планета обезьян: Война / War for the Planet of the Apes (2017) BDRip 1080p от New-Team qqss44 | Лицензия
  • Планета обезьян: Война / War for the Planet of the Apes (2017) BDRip 1080p от Ash61 | 3D-Video | halfOU | Лицензия
  • Планета обезьян: Война / War for the Planet of the Apes (2017) AC3, AAC, SUB | D, L1


    • Комментарии (0):

      Информация

      Информация

        Посетители, находящиеся в группе Гости, не могут оставлять комментарии в данной новости.

        ↓ Меню



        ↓ Опрос

        А Вы добавили сайт в закладки?
        Да
        Не


        Top 10 за месяц (Фильмы)