.
Авторизация | Регистрация
Хочешь лучшие торренты? Добавь свой email!
Добавить
» » Отступники / The Departed (2006) BDRip 720p by msltel | D, P2, A, L1 скачать торрент бесплатно




    Отступники / The Departed (2006) BDRip 720p by msltel | D, P2, A, L1 скачать торрент бесплатно

    Опубликовал: Админ | Дата: 27-02-2015, 11:10 | Просмотров: 135


    Создали в: 2006
    Снималось в: США
    Категория жанра: триллер, драма, криминал
    Время просмотра: 02:31:18
    Перевод текста: дублированный, профессиональный двухголосый, авторский, любительский одноголосый
    Субтитры: русские, английские (все отдельно), русские на места без перевода
    Главный режиссёр: Мартин Скорсезе
    Актеры: Леонардо ДиКаприо, Мэтт Дэймон, Джек Николсон, Марк Уолберг, Мартин Шин, Рэй Уинстон, Вера Фармига, Энтони Андерсон, Алек Болдуин, Кевин Корригэн, Джеймс Бэдж Дэйл, Дэвид О’Хара, Марк Ролстон, Роберт Уолберг, Кристен Далтон, Томас Б. Даффи, Дж.С. МакКензи, Мэри Клуг, Пег Хольцмер, Тоширо Чан Ямамото, Гардип Синх, Армен Гаро, Джон Ченатьемпо, Джозеф Риккобене, Билли Смит, Лиман Чен, Кевин П. МакКарти, Крис Фишер, Брайан Смиж, Уильям Северс, Ларри Митчел, Энтони Эстрелла, Эндрю Бревинг, Трэйси Палео, Дуглас Кросби, Дороти Ли
    Сюжет: Два лучших выпускника полицейской академии оказались по разные стороны баррикады: один из них — агент мафии в рядах правоохранительных органов, другой — крот, внедрённый в мафию. Каждый считает своим долгом обнаружить и уничтожить противника, но постоянная жизнь в искажённых реалиях меняет внутренний мир героев.

    Качество фильма: BDRip 720pСравнение с исходником
    Тип видео: MKV
    Информация о видео: MPEG-4 AVC, 3992 Кбит/с, 1280x530, 23.976 кадра/с, 0.245 bpp
    Информация о звуке 1:русский, AC3, 448 kbps, 6 ch, 48 kHz дублированный
    Информация о звуке 2:русский, AC3, 448 kbps, 6 ch, 48 kHz профессиональный двухголосый, Пётр Гланц и Инна Королёва
    Информация о звуке 3:русский, AC3, 384 kbps, 6 ch, 48 kHz авторский, Андрей Гаврилов
    Информация о звуке 4:русский, AC3, 448 kbps, 6 ch, 48 kHz авторский, Юрий Немахов
    Субтитры:русские (на места без перевода)
    Отдельные файлы
    Информация о звуке:русский, DTS, 768 kbps, 6 ch, 48 kHz дублированный
    Информация о звуке:русский, DTS, 768 kbps, 6 ch, 48 kHz профессиональный двухголосый, Пётр Гланц и Инна Королёва
    Информация о звуке:русский, AC3, 256 kbps, 6 ch, 48 kHz профессиональный двухголосый, Рен-ТВ
    Информация о звуке:русский, DTS, 768 kbps, 6 ch, 48 kHz авторский, Юрий Немахов
    Информация о звуке:русский, AC3, 448 kbps, 6 ch, 48 kHz любительский одноголосый, Zamez,перевод REN_313
    Информация о звуке:английский, AC3, 640 kbps, 6 ch, 48 kHz оригинал
    Имеются неименованные главы/чаптеры.
    Награды
    Оскар, 2007 год
    Победитель (4):
    Лучший фильм
    Лучший режиссер (Мартин Скорсезе)
    Лучший адаптированный сценарий
    Лучший монтаж
    Номинации (1):
    Лучшая мужская роль второго плана (Марк Уолберг)
    Золотой глобус, 2007 год
    Победитель (1):
    Лучший режиссер (Мартин Скорсезе)
    Номинации (5):
    Лучший фильм (драма)
    Лучшая мужская роль (драма) (Леонардо ДиКаприо)
    Лучшая мужская роль второго плана (Джек Николсон)
    Лучшая мужская роль второго плана (Марк Уолберг)
    Лучший сценарий
    Премия канала MTV, 2007 год
    Победитель (1):
    Лучший злодей (Джек Николсон)Британская академия, 2007 год
    Номинации (6):
    Лучший фильм
    Лучшая мужская роль (Леонардо ДиКаприо)
    Лучшая мужская роль второго плана (Джек Николсон)
    Лучший адаптированный сценарий
    Лучший монтаж
    Премия имени Дэвида Лина за достижения в режиссуре (Мартин Скорсезе)
    Жорж, 2007 год
    Номинации (1):
    Лучший высокобюджетный/зрелищный фильм
    Сатурн, 2007 год
    Номинации (1):
    Лучший приключенческий фильм, боевик или триллер
    Премия Гильдии актеров, 2007 год
    Номинации (2):
    Лучший актерский состав
    Лучшая мужская роль второго плана (Леонардо ДиКаприо)

    MediaInfo
    frame I:2399 Avg QP:16.04 size:102866
    frame P:42955 Avg QP:17.14 size: 40449
    frame B:172324 Avg QP:18.66 size: 15526
    Общее
    Полное имя : D:VideoOtstupniki.2006.BDRip.720pOtstupniki.2006.AVO.rus.Ю.Немахов.dts
    Формат : DTS
    Формат/Информация : Digital Theater Systems
    Размер файла : 831 Мбайт
    Продолжительность : 2 ч. 31 м.
    Режим общего битрейта : Постоянный
    Общий поток : 768 Кбит/сек
    Аудио
    Формат : DTS
    Формат/Информация : Digital Theater Systems
    Режим : 16
    Параметр Endianness формата : Big
    Продолжительность : 2 ч. 31 м.
    Вид битрейта : Постоянный
    Битрейт : 768 Кбит/сек
    Каналы : 6 каналов
    Расположение каналов : Front: L C R, Side: L R, LFE
    Частота : 48,0 КГц
    Битовая глубина : 24 бит
    Метод сжатия : С потерями
    Размер потока : 831 Мбайт (100%)
    Общее
    Уникальный идентификатор : 179518280739796110100703077531965845280 (0x870DF6972B7AEFBEA51BE7D1AE31EF20)
    Полное имя : D:VideoOtstupniki.2006.BDRip.720pOtstupniki.2006.BDRip.720p.mkv
    Формат : Matroska
    Версия формата : Version 4/Version 2
    Размер файла : 6,17 Гбайт
    Продолжительность : 2 ч. 31 м.
    Общий поток : 5836 Кбит/сек
    Дата кодирования : UTC 2014-10-26 18:48:43
    Программа кодирования : mkvmerge v7.3.0 (;Nouages;) 64bit built on Oct 22 2014 18:53:34
    Библиотека кодирования : libebml v1.3.0 + libmatroska v1.4.1
    DURATION : 00:00:17.980000000
    NUMBER_OF_FRAMES : 5
    NUMBER_OF_BYTES : 391
    _STATISTICS_WRITING_APP : mkvmerge v7.3.0 (;Nouages;) 64bit built on Oct 22 2014 18:53:34
    _STATISTICS_WRITING_DATE_UTC : 2014-10-26 18:48:43
    _STATISTICS_TAGS : BPS DURATION NUMBER_OF_FRAMES NUMBER_OF_BYTES
    Видео
    Идентификатор : 1
    Формат : AVC
    Формат/Информация : Advanced Video Codec
    Профиль формата : High@L4.1
    Параметр CABAC формата : Да
    Параметр ReFrames формата : 9 кадров
    Идентификатор кодека : V_MPEG4/ISO/AVC
    Продолжительность : 2 ч. 31 м.
    Битрейт : 3992 Кбит/сек
    Ширина : 1280 пикселей
    Высота : 530 пикселей
    Соотношение сторон : 2,40:1
    Режим частоты кадров : Постоянный
    Частота кадров : 23,976 кадра/сек
    Цветовое пространство : YUV
    Субдискретизация насыщенности : 4:2:0
    Битовая глубина : 8 бит
    Тип развёртки : Прогрессивная
    Бит/(Пиксели*Кадры) : 0.245
    Размер потока : 4,22 Гбайт (68%)
    Заголовок : BDRip -- STarankov
    Библиотека кодирования : x264 core 142 r2431 ac76440
    Залил: msltel

    Онлайн видео Отступники


    Размер скачиваемого торрента: 10.02 GB (10764128470 Bytes)


    Отступники/The Departed (2006) BDRip 720p by msltel | D, P2, A, L1 торрент скачать бесплатно
    загрузка...
    Рейтинг →
     (голосов: 1, оценка 5/5, голосовать можно 1 раз )

    Другие торренты по теме:

  • Отступники / The Departed (2006) BDRip-AVC
  • Отступники / The Departed (2006) BDRip 720p от leonardo 59 Scarabey | Лицензия
  • Отступники / The Departed (2006) BDRip-AVC от leonardo 59 Scarabey скачать через торрент бесплатно
  • Отступники / The Departed (2006) HDRip-AVC | iPhone скачать через торрент бесплатно
  • Отступники / The Departed (2006) DVD9 | P2, A скачать через торрент бесплатно
  • Отступники / The Departed (2006) BDRip-AVC от 0ptimus | D, P2, A, L1 скачать через торрент бесплатно
  • Отступники / The Departed (2006) BDRip 1080p by msltel | D, P2, A, L1 скачать через торрент бесплатно
  • Отступники / The Departed (2006) BDRip 720p от HQ-ViDEO | D


    • Комментарии (0):

      Информация

      Информация

        Посетители, находящиеся в группе Гости, не могут оставлять комментарии в данной новости.

        ↓ Меню



        ↓ Опрос

        А Вы добавили сайт в закладки?
        Да
        Не


        Top 10 за месяц (Фильмы)