.
Авторизация | Регистрация
Хочешь лучшие торренты? Добавь свой email!
Добавить
» » Поворот не туда 6: Последний курорт / Wrong Turn 6: Last Resort (2014) BDRip 720p | Unrated | Лицензия скачать торрент бесплатно




    Поворот не туда 6: Последний курорт / Wrong Turn 6: Last Resort (2014) BDRip 720p | Unrated | Лицензия скачать торрент бесплатно

    Опубликовал: Админ | Дата: 27-02-2015, 11:10 | Просмотров: 137


    Детально о кино
    Русское название: Поворот не туда 6: Последний курорт
    Русское название в мировом прокате: Wrong Turn 6: Last Resort
    Создали в: 2014
    Категория жанра: ужасы
    Главный режиссер: Валерий Милев
    Актеры:Сэди Кац, Anthony Ilott, Акилла Золл, Ролло Скиннер, Билли Эшворт, Роксанна Паллетт, Крис Джарвис, Асен Асенов, Гарри Белчер, Риз Койро
    Сюжет фильма:В поисках внезапного и таинственного наследства, Дэнни и его друзья оказываются в Хобб Спрингс, на заброшенном курорте в горах Западной Вирджинии. Вскоре Дэнни узнает, что его родственники, которых он никогда не знал, вели довольно странный образ жизни, основывающийся на каннибализме. Дэнни придется выбирать между друзьями и родственниками.

    Снималось в: США
    Время просмотра: 01:30:30
    Тип перевода: Профессиональное (многоголосое) Лицензия
    Файл
    Тип видео: MKV
    Качество фильма: BDRip 720p
    Информация о видео: 5393 kb/s, 1280x720
    Информация о звуке: Russian: AC3, 384 kb/s (6 ch)/English: DTS, 1510 kb/s (6 ch)
    Субтитры:Russian, English


    MI
    Format : Matroska
    Format version : Version 2
    File size : 4.60 GiB
    Duration : 1h 30mn
    Overall bit rate : 7 278 Kbps
    Encoded date : UTC 2014-10-27 21:24:33
    Writing application : mkvmerge v3.3.0 (;Language;) built on Mar 24 2010 14:59:24
    Writing library : libebml v0.8.0 + libmatroska v0.9.0
    DURATION : 01:30:30.432000000
    NUMBER_OF_FRAMES : 509103
    NUMBER_OF_BYTES : 1024315236
    _STATISTICS_WRITING_APP : mkvmerge v7.1.0 (;Good Love;) 64bit built on Jul 27 2014 13:06:55
    _STATISTICS_WRITING_DATE_UTC : 2014-10-19 00:11:00
    _STATISTICS_TAGS : BPS DURATION NUMBER_OF_FRAMES NUMBER_OF_BYTES
    Video #1
    ID : 1
    Format : AVC
    Format/Info : Advanced Video Codec
    Format profile : High@L4.1
    Format settings, CABAC : Yes
    Format settings, ReFrames : 9 frames
    Codec ID : V_MPEG4/ISO/AVC
    Duration : 1h 30mn
    Bit rate : 5 393 Kbps
    Width : 1 280 pixels
    Height : 720 pixels
    Display aspect ratio : 16:9
    Frame rate mode : Constant
    Frame rate : 23.976 fps
    Color space : YUV
    Chroma subsampling : 4:2:0
    Bit depth : 8 bits
    Scan type : Progressive
    Bits/(Pixel*Frame) : 0.244
    Stream size : 3.31 GiB (72%)
    Writing library : x264 core 138 r2358 9e941d1
    Encoding settings : cabac=1/ref=9/deblock=1:-3:-3/analyse=0x3:0x113/me=umh/subme=11/psy=1/psy_rd=1.10:0.15/mixed_ref=1/me_range=32/chroma_me=1/trellis=2/8x8dct=1/cqm=0/deadzone=21,11/fast_pskip=0/chroma_qp_offset=-2/threads=18/lookahead_threads=1/sliced_threads=0/nr=0/decimate=1/interlaced=0/bluray_compat=0/constrained_intra=0/bframes=6/b_pyramid=2/b_adapt=2/b_bias=0/direct=3/weightb=1/open_gop=0/weightp=2/keyint=250/keyint_min=23/scenecut=40/intra_refresh=0/rc_lookahead=40/rc=2pass/mbtree=0/bitrate=5393/ratetol=1.0/qcomp=0.60/qpmin=0/qpmax=69/qpstep=4/cplxblur=20.0/qblur=0.5/vbv_maxrate=40000/vbv_bufsize=30000/nal_hrd=none/ip_ratio=1.40/pb_ratio=1.30/aq=1:0.80
    Language : English
    Default : No
    Forced : No
    DURATION : 01:30:30.463000000
    NUMBER_OF_FRAMES : 130201
    NUMBER_OF_BYTES : 3653680031
    _STATISTICS_WRITING_APP : mkvmerge v7.1.0 (;Good Love;) 64bit built on Jul 27 2014 13:06:55
    _STATISTICS_WRITING_DATE_UTC : 2014-10-19 00:11:00
    _STATISTICS_TAGS : BPS DURATION NUMBER_OF_FRAMES NUMBER_OF_BYTES
    Audio #2
    ID : 2
    Format : AC-3
    Format/Info : Audio Coding 3
    Mode extension : CM (complete main)
    Format settings, Endianness : Big
    Codec ID : A_AC3
    Duration : 1h 30mn
    Bit rate mode : Constant
    Bit rate : 384 Kbps
    Channel(s) : 6 channels
    Channel positions : Front: L C R, Side: L R, LFE
    Sampling rate : 48.0 KHz
    Bit depth : 16 bits
    Compression mode : Lossy
    Stream size : 249 MiB (5%)
    Title : AC3 5.1 @ 384 kbps
    Language : Russian
    Default : Yes
    Forced : No
    Audio #3
    ID : 3
    Format : DTS
    Format/Info : Digital Theater Systems
    Mode : 16
    Format settings, Endianness : Big
    Codec ID : A_DTS
    Duration : 1h 30mn
    Bit rate mode : Constant
    Bit rate : 1 509 Kbps
    Channel(s) : 6 channels
    Channel positions : Front: L C R, Side: L R, LFE
    Sampling rate : 48.0 KHz
    Bit depth : 24 bits
    Compression mode : Lossy
    Delay relative to video : 11ms
    Stream size : 977 MiB (21%)
    Title : DTS 5.1 @ 1509 kbps
    Language : English
    Default : No
    Forced : No
    Text #4
    ID : 4
    Format : UTF-8
    Codec ID : S_TEXT/UTF8
    Codec ID/Info : UTF-8 Plain Text
    Language : Russian
    Default : No
    Forced : Yes
    Text #5
    ID : 5
    Format : UTF-8
    Codec ID : S_TEXT/UTF8
    Codec ID/Info : UTF-8 Plain Text
    Title : Keith
    Language : Russian
    Default : No
    Forced : No
    Text #6
    ID : 6
    Format : UTF-8
    Codec ID : S_TEXT/UTF8
    Codec ID/Info : UTF-8 Plain Text
    Language : English
    Default : No
    Forced : No
    Скриншоты для ознакомления

    Релиз:
    Размер скачиваемого торрента: 4.60 GB (4940582435 Bytes)

    Поворот не туда 6: Последний курорт/Wrong Turn 6: Last Resort (2014) BDRip 720p | Unrated | Лицензия торрент скачать бесплатно
    загрузка...
    Рейтинг →
     (голосов: 1, оценка 5/5, голосовать можно 1 раз )

    Другие торренты по теме:

  • Поворот не туда 5: Кровное родство / Wrong Turn 5 (2012) BDRip-AVC | iPad
  • Поворот не туда 2: Тупик / Wrong Turn 2: Dead End (2007) HDRip от Scarabey | D
  • Поворот не туда 5: Кровное родство / Wrong Turn 5: Bloodlines (2012) BDRemux 1080p
  • Поворот не туда / Wrong Turn (2003) HDRip-AVC | D скачать через торрент бесплатно
  • Поворот не туда 4: Кровавое начало / Wrong Turn 4: Bloody Beginnings (2011) BDRip 1080p от Freeisland скачать через торрент бесплатно
  • Поворот не туда 5: Кровное родство / Wrong Turn 5: Bloodlines (2012) BDRip 1080p от Freeisland
  • Поворот не туда: Пенталогия / Wrong Turn: Pentalog (2003-2012) BDRip-AVC от HELLYWOOD | Лицензия скачать через торрент бесплатно
  • Поворот не туда 6: Последний курорт / Wrong Turn 6: Last Resort


    • Комментарии (0):

      Информация

      Информация

        Посетители, находящиеся в группе Гости, не могут оставлять комментарии в данной новости.

        ↓ Меню



        ↓ Опрос

        А Вы добавили сайт в закладки?
        Да
        Не


        Top 10 за месяц (Фильмы)