.
Авторизация | Регистрация
Хочешь лучшие торренты? Добавь свой email!
Добавить
» » Однажды в Америке / Once Upon a Time in America (1984) BDRip 720p | Extended Cut скачать через торрент бесплатно




    Однажды в Америке / Once Upon a Time in America (1984) BDRip 720p | Extended Cut скачать через торрент бесплатно

    Опубликовал: Админ | Дата: 27-02-2015, 11:10 | Просмотров: 159


    Детально о кино
    Русское название:Однажды в Америке
    Русское название в мировом прокате:Once Upon a Time in America
    Создали в:1983
    Категория жанра:драма, криминал
    Главный режиссер:Серджо Леоне
    Актеры:Роберт Де Ниро, Джеймс Вудс, Элизабет МакГоверн, Джо Пеши, Берт Янг, Тьюзди Уэлд, Трит Уильямс, Дэнни Айелло, Ричард Брайт, Джеймс Хейден
    Сюжет фильма:В бурные двадцатые годы, когда Америка веселилась под звуки джаза и каждый бродяга мечтал стать миллионером, в трущобах Нью-Йорка встретились несколько отчаянных парней. Убирая с дороги конкурентов, безжалостно карая предателей и нагло проворачивая хитроумные аферы, они стали королями преступного мира золотой эры сухого закона. Они поклялись отдать жизнь друг за друга, зная, что самое главное для них — это дружба, долг и справедливость — не утопить в реках крови и бездонном океане денег. Спустя много лет судьба жестоко обошлась с легендарными гангстерами, заставив их исполнить свою клятву. Это случилось однажды в Америке…

    Снималось в:Italy, USA
    Киностудия:Ladd Company, The, Embassy International Pictures, PSO International
    Время просмотра:04:12:19
    Перевод текста:авторский (одноголосый закадровый)
    Субтитры:русские, английские, итальянские
    Файл
    Кодек для видео:MPEG-4 AVC/H.264
    Качество фильма:BDRip 720p
    Информация о видео:1280 x 694 (1,85:1), 9 095 kbps, 24.000 fps, 0.427 b/px
    Информация о звуке:
    Аудио # 1: DTS, 6 ch, 1509 kbps, 48 000 Hz Авторский одноголосый закадровый (Ю.Сербин) новый перевод
    Аудио # 2: DTS, 6 ch, 1509 kbps, 48 000 Hz Авторский одноголосый закадровый (Ю.Сербин) видеосервисовский перевод
    Аудио # 3: DTS, 6 ch, 1509 kbps, 48 000 Hz Оригинальный
    MediaInfo
    Общее
    Уникальный идентификатор : 206286986243374721124830195145221097133 (0x9B316DAB4090B1F3A1A384A3083846AD)
    Полное имя : E:1984 Однажды в Америке Extended Cut BDRip 720p.mkv
    Формат : Matroska
    Версия формата : Version 4/Version 2
    Размер файла : 24,5 Гбайт
    Продолжительность : 4 ч. 12 м.
    Общий поток : 13,9 Мбит/сек
    Название фильма : Однажды в Америке/Once Upon a Time in America (1984) Extended Cut BDRip 720p
    Дата кодирования : UTC 2014-10-22 06:42:43
    Программа кодирования : mkvmerge v7.2.0 (;On Every Street;) 32bit built on Sep 13 2014 15:42:11
    Библиотека кодирования : libebml v1.3.0 + libmatroska v1.4.1
    DURATION : 04:00:20.416000000
    NUMBER_OF_FRAMES : 1609
    NUMBER_OF_BYTES : 57312
    _STATISTICS_WRITING_APP : mkvmerge v7.2.0 (;On Every Street;) 32bit built on Sep 13 2014 15:42:11
    _STATISTICS_WRITING_DATE_UTC : 2014-10-22 06:42:43
    _STATISTICS_TAGS : BPS DURATION NUMBER_OF_FRAMES NUMBER_OF_BYTES
    Видео
    Идентификатор : 1
    Формат : AVC
    Формат/Информация : Advanced Video Codec
    Профиль формата : High@L4.1
    Параметр CABAC формата : Да
    Параметр ReFrames формата : 9 кадров
    Идентификатор кодека : V_MPEG4/ISO/AVC
    Продолжительность : 4 ч. 12 м.
    Битрейт : 9095 Кбит/сек
    Ширина : 1280 пикселей
    Высота : 694 пикселя
    Соотношение сторон : 1,85:1
    Режим частоты кадров : Постоянный
    Частота кадров : 24,000 кадра/сек
    Цветовое пространство : YUV
    Субдискретизация насыщенности : 4:2:0
    Битовая глубина : 8 бит
    Тип развёртки : Прогрессивная
    Бит/(Пиксели*Кадры) : 0.427
    Размер потока : 16,0 Гбайт (65%)
    Заголовок : 1984 Однажды в Америке Extended Cut BDRip 720p
    Библиотека кодирования : x264 core 129 r2245kMod bc13772
    Настройки программы : cabac=1/ref=9/deblock=1:-3:-3/analyse=0x3:0x113/me=umh/subme=9/psy=1/fade_compensate=0.00/psy_rd=1.05:0.00/mixed_ref=1/me_range=16/chroma_me=1/trellis=2/8x8dct=1/cqm=0/deadzone=21,11/fast_pskip=0/chroma_qp_offset=-2/threads=6/lookahead_threads=1/sliced_threads=0/nr=0/decimate=0/interlaced=0/bluray_compat=0/constrained_intra=0/bframes=8/b_pyramid=2/b_adapt=2/b_bias=0/direct=3/weightb=1/open_gop=0/weightp=2/keyint=250/keyint_min=24/scenecut=40/intra_refresh=0/rc=crf/mbtree=0/crf=18.0000/qcomp=0.70/qpmin=0/qpmax=69/qpstep=4/ip_ratio=1.30/pb_ratio=1.20/aq=1:0.70
    Язык : English
    Default : Да
    Forced : Нет
    DURATION : 04:12:19.334000000
    NUMBER_OF_FRAMES : 363344
    NUMBER_OF_BYTES : 17727555621
    _STATISTICS_WRITING_APP : mkvmerge v7.2.0 (;On Every Street;) 32bit built on Sep 13 2014 15:42:11
    _STATISTICS_WRITING_DATE_UTC : 2014-10-22 06:42:43
    _STATISTICS_TAGS : BPS DURATION NUMBER_OF_FRAMES NUMBER_OF_BYTES
    Аудио #1
    Идентификатор : 2
    Формат : DTS
    Формат/Информация : Digital Theater Systems
    Режим : 16
    Параметр Endianness формата : Big
    Идентификатор кодека : A_DTS
    Продолжительность : 4 ч. 12 м.
    Вид битрейта : Постоянный
    Битрейт : 1509 Кбит/сек
    Каналы : 6 каналов
    Расположение каналов : Front: L C R, Side: L R, LFE
    Частота : 48,0 КГц
    Битовая глубина : 24 бит
    Метод сжатия : С потерями
    Размер потока : 2,66 Гбайт (11%)
    Заголовок : Авторский одноголосый закадровый (Ю.Сербин) новый перевод
    Язык : Russian
    Default : Да
    Forced : Нет
    Аудио #2
    Идентификатор : 3
    Формат : DTS
    Формат/Информация : Digital Theater Systems
    Режим : 16
    Параметр Endianness формата : Big
    Идентификатор кодека : A_DTS
    Продолжительность : 4 ч. 12 м.
    Вид битрейта : Постоянный
    Битрейт : 1509 Кбит/сек
    Каналы : 6 каналов
    Расположение каналов : Front: L C R, Side: L R, LFE
    Частота : 48,0 КГц
    Битовая глубина : 24 бит
    Метод сжатия : С потерями
    Размер потока : 2,66 Гбайт (11%)
    Заголовок : Авторский одноголосый закадровый (Ю.Сербин) видеосервисовский перевод
    Язык : Russian
    Default : Нет
    Forced : Нет
    Аудио #3
    Идентификатор : 4
    Формат : DTS
    Формат/Информация : Digital Theater Systems
    Режим : 16
    Параметр Endianness формата : Big
    Идентификатор кодека : A_DTS
    Продолжительность : 4 ч. 12 м.
    Вид битрейта : Постоянный
    Битрейт : 1509 Кбит/сек
    Каналы : 6 каналов
    Расположение каналов : Front: L C R, Side: L R, LFE
    Частота : 48,0 КГц
    Битовая глубина : 24 бит
    Метод сжатия : С потерями
    Задержка видео : 11 мс.
    Размер потока : 2,66 Гбайт (11%)
    Заголовок : Оригинальный
    Язык : English
    Default : Нет
    Forced : Нет
    Текст #1
    Идентификатор : 5
    Формат : UTF-8
    Идентификатор кодека : S_TEXT/UTF8
    Идентификатор кодека/Информация : UTF-8 Plain Text
    Заголовок : Русские
    Язык : Russian
    Default : Нет
    Forced : Нет
    Текст #2
    Идентификатор : 6
    Формат : UTF-8
    Идентификатор кодека : S_TEXT/UTF8
    Идентификатор кодека/Информация : UTF-8 Plain Text
    Заголовок : English
    Язык : English
    Default : Нет
    Forced : Нет
    Текст #3
    Идентификатор : 7
    Формат : UTF-8
    Идентификатор кодека : S_TEXT/UTF8
    Идентификатор кодека/Информация : UTF-8 Plain Text
    Заголовок : Italian
    Язык : Italian
    Default : Нет
    Forced : Нет
    Текст #4
    Идентификатор : 8
    Формат : UTF-8
    Идентификатор кодека : S_TEXT/UTF8
    Идентификатор кодека/Информация : UTF-8 Plain Text
    Заголовок : English (SDH)
    Язык : English
    Default : Нет
    Forced : Нет
    Текст #5
    Идентификатор : 9
    Формат : UTF-8
    Идентификатор кодека : S_TEXT/UTF8
    Идентификатор кодека/Информация : UTF-8 Plain Text
    Заголовок : Italian (SDH)
    Язык : Italian
    Default : Нет
    Forced : Нет
    Меню
    00:00:00.000 : en:00:00:00.000
    00:03:28.917 : en:00:03:28.917
    00:14:48.083 : en:00:14:48.083
    00:24:36.000 : en:00:24:36.000
    00:37:39.667 : en:00:37:39.667
    00:45:50.167 : en:00:45:50.167
    00:53:35.875 : en:00:53:35.875
    01:04:46.875 : en:01:04:46.875
    01:12:05.000 : en:01:12:05.000
    01:22:31.583 : en:01:22:31.583
    01:30:33.417 : en:01:30:33.417
    01:38:18.875 : en:01:38:18.875
    01:44:53.292 : en:01:44:53.292
    01:52:24.875 : en:01:52:24.875
    02:01:01.167 : en:02:01:01.167
    02:08:37.625 : en:02:08:37.625
    02:18:36.083 : en:02:18:36.083
    02:27:45.875 : en:02:27:45.875
    02:33:55.583 : en:02:33:55.583
    02:42:24.667 : en:02:42:24.667
    02:48:07.250 : en:02:48:07.250
    02:55:59.333 : en:02:55:59.333
    03:02:59.417 : en:03:02:59.417
    03:08:52.417 : en:03:08:52.417
    03:13:56.708 : en:03:13:56.708
    03:22:56.208 : en:03:22:56.208
    03:30:10.750 : en:03:30:10.750
    03:40:32.625 : en:03:40:32.625
    03:46:35.750 : en:03:46:35.750
    03:54:51.333 : en:03:54:51.333
    04:03:14.167 : en:04:03:14.167
    04:06:44.750 : en:04:06:44.750

    Скриншоты для ознакомления

    Размер скачиваемого торрента: 24.50 GB (26302753514 Bytes)

    Однажды в Америке/Once Upon a Time in America (1984) BDRip 720p | Extended Cut скачать через торрент бесплатно
    загрузка...
    Рейтинг →
     (голосов: 1, оценка 3/5, голосовать можно 1 раз )

    Другие торренты по теме:

  • Однажды в сказке / Once Upon A Time (2013) WEB-DL 720p | Кубик в кубе скачать через торрент бесплатно
  • Однажды в сказке / Once Upon A Time (2013) WEB-DLRip | Кубик в кубе скачать через торрент бесплатно
  • Однажды в сказке / Once Upon A Time (2013) WEB-DL 1080p | Кубик в кубе скачать через торрент бесплатно
  • В Некотором Царстве / Однажды в сказке / Once Upon a Time (2011-2014) WEB-DLRip скачать через торрент бесплатно
  • Однажды в Сказке / В Некотором Царстве / Давным-давно / Resurrection (2014) WEB-DLRip | To4ka от Generalfilm скачать через торрент бесплатно
  • Мир в фокусе: Однажды в Африке (2014) WEB-DL 720p
  • Мир в фокусе: Однажды в Африке (2014) WEB-DLRip скачать через торрент бесплатно
  • Однажды в сказке / Once Upon a Time (2014) WEB-DLRip | Кубик в Кубе


    • Комментарии (0):

      Информация

      Информация

        Посетители, находящиеся в группе Гости, не могут оставлять комментарии в данной новости.

        ↓ Меню



        ↓ Опрос

        А Вы добавили сайт в закладки?
        Да
        Не


        Top 10 за месяц (Фильмы)