.
Авторизация | Регистрация
Хочешь лучшие торренты? Добавь свой email!
Добавить
» » Уайатт Эрп / Wyatt Earp (1994) DVD-9 скачать через торрент бесплатно




    Уайатт Эрп / Wyatt Earp (1994) DVD-9 скачать через торрент бесплатно

    Опубликовал: Админ | Дата: 27-02-2015, 11:10 | Просмотров: 243


    Детально о кино
    Русское название:Уайатт Эрп
    Русское название в мировом прокате:Wyatt Earp
    Создали в:1994
    Категория жанра:Вестерн
    Главный режиссер:Лоуренс Кэздан
    Актеры:Кевин Костнер, Дэннис Куэйд, Джин Хэкмен, Джефф Фэйи, Марк Хэрмон, Майкл Мэдсен, Кэтрин О`Хара, Билл Пуллман, Изабелла Росселлини, Том Сайзмор, Элисон Эллиотт, Мэр Уиннингхэм, Дэвид Эндрюс, Линден Эшби, Джоэнна Гоуинг, Рекс Линн, Адам Болдуин, Иэн Боэн, МакКензи Эстин, Джеймс Кэвизел, Карен Грассл
    Сюжет фильма:Кевин Костнер в роли самого известного представителя закона из всех, что когда-либо шагали по дорогам Дикого Запада. Он играет человека, ставшего легендой в героической саге, изобилующей острыми и непредсказуемыми моментами.

    Снималось в:США
    Киностудия:Warner Bros. Pictures, Tig Productions, Kasdan Pictures
    Время просмотра:03:10:35
    Перевод текста:Дублированный, профессиональный многоголосый, автрский
    Файл
    Кодек для видео:MPEG-2
    Качество фильма:DVD-9
    Информация о видео:MPEG2, PAL, 16:9 (720x576) VBR, 25 кадр/с
    Информация о звуке:Русский/Английский/DD 5.1 (384Kbps); Русский DD 2.0 (192Kbps)
    Перевод

    1. Дублированный
    2. Профессиональный многоголосый
    3. Авторский (Живов)
    4. Авторский (Гаврилов)
    5. Авторский (Володарский)
    6. Английский
    Меню
    DVDInfo
    Title:
    Size: 6.47 Gb ( 6 785 826 KBytes ) - DVD-9
    Enabled regions: 1, 2, 3, 4, 5, 6, 7, 8
    VTS_01 :
    Play Length: 03:10:35
    Video: PAL 16:9 (720x576) VBR, Auto PanScan
    Audio:
    Russian (Dolby AC3, 2 ch)
    Russian (Dolby AC3, 2 ch)
    Russian (Dolby AC3, 2 ch)
    Russian (Dolby AC3, 2 ch)
    Russian (Dolby AC3, 6 ch)
    English (Dolby AC3, 6 ch)
    Menu Video:
    PAL 4:3 (720x576) VBR
    Menu English Language Unit :
    Root Menu
    MediaInfo
    Общее
    Полное имя : D:ААА2УАЙАТТ ЭРПVIDEO_TSVTS_01_1.VOB
    Формат : MPEG-PS
    Размер файла : 1000 Мбайт
    Продолжительность : 24 м.
    Режим общего битрейта : Переменный
    Общий поток : 5780 Кбит/сек
    Видео
    Идентификатор : 224 (0xE0)
    Формат : MPEG Video
    Версия формата : Version 2
    Профиль формата : Main@Main
    Параметр BVOP формата : Да
    Параметр матрицы формата : По умолчанию
    Параметр GOP формата : M=3, N=12
    Продолжительность : 24 м.
    Вид битрейта : Переменный
    Битрейт : 4129 Кбит/сек
    Максимальный битрейт : 8080 Кбит/сек
    Ширина : 720 пикселей
    Высота : 576 пикселей
    Соотношение сторон : 16:9
    Частота кадров : 24,000 кадра/сек
    Стандарт вещания : PAL
    Цветовое пространство : YUV
    Субдискретизация насыщенности : 4:2:0
    Битовая глубина : 8 бит
    Тип развёртки : Прогрессивная
    Порядок развёртки : 2:2:2:2:2:2:2:2:2:2:2:3 Pulldown
    Метод сжатия : С потерями
    Бит/(Пиксели*Кадры) : 0.415
    TimeCode_FirstFrame : 00:00:00:00
    TimeCode_Source : Group of pictures t_head
    Размер потока : 714 Мбайт (71%)
    Аудио #1
    Идентификатор : 189 (0xBD)-128 (0x80)
    Формат : AC-3
    Формат/Информация : Audio Coding 3
    Расширение режима : CM (complete main)
    Параметр Endianness формата : Big
    Режим смешивания : DVD-Video
    Продолжительность : 24 м.
    Вид битрейта : Постоянный
    Битрейт : 192 Кбит/сек
    Каналы : 2 канала
    Расположение каналов : Front: L R
    Частота : 48,0 КГц
    Битовая глубина : 16 бит
    Метод сжатия : С потерями
    Размер потока : 33,2 Мбайт (3%)
    Аудио #2
    Идентификатор : 189 (0xBD)-129 (0x81)
    Формат : AC-3
    Формат/Информация : Audio Coding 3
    Расширение режима : CM (complete main)
    Параметр Endianness формата : Big
    Режим смешивания : DVD-Video
    Продолжительность : 24 м.
    Вид битрейта : Постоянный
    Битрейт : 192 Кбит/сек
    Каналы : 2 канала
    Расположение каналов : Front: L R
    Частота : 48,0 КГц
    Битовая глубина : 16 бит
    Метод сжатия : С потерями
    Размер потока : 33,2 Мбайт (3%)
    Аудио #3
    Идентификатор : 189 (0xBD)-130 (0x82)
    Формат : AC-3
    Формат/Информация : Audio Coding 3
    Расширение режима : CM (complete main)
    Параметр Endianness формата : Big
    Режим смешивания : DVD-Video
    Продолжительность : 24 м.
    Вид битрейта : Постоянный
    Битрейт : 192 Кбит/сек
    Каналы : 2 канала
    Расположение каналов : Front: L R
    Частота : 48,0 КГц
    Битовая глубина : 16 бит
    Метод сжатия : С потерями
    Размер потока : 33,2 Мбайт (3%)
    Аудио #4
    Идентификатор : 189 (0xBD)-131 (0x83)
    Формат : AC-3
    Формат/Информация : Audio Coding 3
    Расширение режима : CM (complete main)
    Параметр Endianness формата : Big
    Режим смешивания : DVD-Video
    Продолжительность : 24 м.
    Вид битрейта : Постоянный
    Битрейт : 192 Кбит/сек
    Каналы : 2 канала
    Расположение каналов : Front: L R
    Частота : 48,0 КГц
    Битовая глубина : 16 бит
    Метод сжатия : С потерями
    Размер потока : 33,2 Мбайт (3%)
    Аудио #5
    Идентификатор : 189 (0xBD)-132 (0x84)
    Формат : AC-3
    Формат/Информация : Audio Coding 3
    Расширение режима : CM (complete main)
    Параметр Endianness формата : Big
    Режим смешивания : DVD-Video
    Продолжительность : 24 м.
    Вид битрейта : Постоянный
    Битрейт : 384 Кбит/сек
    Каналы : 6 каналов
    Расположение каналов : Front: L C R, Side: L R, LFE
    Частота : 48,0 КГц
    Битовая глубина : 16 бит
    Метод сжатия : С потерями
    Размер потока : 66,4 Мбайт (7%)
    Аудио #6
    Идентификатор : 189 (0xBD)-133 (0x85)
    Формат : AC-3
    Формат/Информация : Audio Coding 3
    Расширение режима : CM (complete main)
    Параметр Endianness формата : Big
    Режим смешивания : DVD-Video
    Продолжительность : 24 м.
    Вид битрейта : Постоянный
    Битрейт : 384 Кбит/сек
    Каналы : 6 каналов
    Расположение каналов : Front: L C R, Side: L R, LFE
    Частота : 48,0 КГц
    Битовая глубина : 16 бит
    Метод сжатия : С потерями
    Размер потока : 66,4 Мбайт (7%)
    Меню

    Скриншоты для ознакомления

    Залил: YArl

    Онлайн видео Уайатт Эрп


    Размер скачиваемого торрента: 6.47 GB (6948685824 Bytes)

    Уайатт Эрп/Wyatt Earp (1994) DVD-9 скачать через торрент бесплатно
    загрузка...
    Рейтинг →
     (голосов: 1, оценка 3/5, голосовать можно 1 раз )

    Другие торренты по теме:

  • Уайатт Эрп / Wyatt Earp (1994) BDRip | А
  • OST - Уайатт Эрп / Wyatt Earp (1994) MP3
  • Уайатт Эрп / Wyatt Earp (2005) BDRip 1080p | D, P, A


    • Комментарии (0):

      Информация

      Информация

        Посетители, находящиеся в группе Гости, не могут оставлять комментарии в данной новости.

        ↓ Меню



        ↓ Опрос

        А Вы добавили сайт в закладки?
        Да
        Не


        Top 10 за месяц (Фильмы)