.
Авторизация | Регистрация
Хочешь лучшие торренты? Добавь свой email!
Добавить
» » Повелитель мух / Lord of the Flies (1963) BDRemux 1080p скачать торрент бесплатно




    Повелитель мух / Lord of the Flies (1963) BDRemux 1080p скачать торрент бесплатно

    Опубликовал: Админ | Дата: 27-02-2015, 11:10 | Просмотров: 202


    Детально о кино
    Русское название:Повелитель мух
    Русское название в мировом прокате:Lord of the Flies
    Создали в:1963
    Категория жанра:триллер, драма, приключения
    Главный режиссер:Питер Брук
    Актеры:Джеймс Обри, Том Чапин, Хью Эдвардс, Роджер Элвин, Том Гаман, Роджер Аллен, Дэвид Бранджис, Питер Дэви, Кент Флетчер, Николас Хэммонд, Кристофер Харрис, Алан Хепс, Джонатан Хепс, Бернс Холлиман, Эндрю Хорн, Ричард Хорн (II)
    Сюжет:Океан без конца и без края. Необитаемый островок. Жара, пальмы, бананы, кабаны, родник чистой пресной воды — и таинственная пещера… Именно на этот островок попадает отряд мальчишек, оставшихся в живых после авиакатастрофы. Неожиданный поворот судьбы подталкивает многих из них забыть обо всем: сначала — о дисциплине и порядке, затем — о дружбе и порядочности, а в конце концов — и о самой природе человеческой.

    Снималось в:Великобритания
    Время просмотра:01:30:49
    Перевод текста:Профессиональный (многоголосый закадровый) | Мастер-Видео Трейд
    + Перевод: Профессиональный (двухголосый закадровый)
    + оригинал
    Файл
    Кодек для видео:MPEG-4
    Качество фильма:BDRemux 1080p
    Информация о видео:1920x1080 at 23.976 fps, ~35387 kbps
    Информация о звуке 1:Russian: 48 kHz, AC3, 2.0 ch, 192 kbps |Многоголосый закадровый|
    Информация о звуке 2:Russian: 48 kHz, AC3, 1.0 ch, 128 kbps |Двухголосый закадровый|
    Информация о звуке 3:English: 48 kHz, LPCM, 1.0 ch, 1152 kbps/24-bit
    Информация о звуке 4:English: 48 kHz, AC3, 1.0 ch, 192 kbps |Commentary feat director, producer, director of photography|
    Информация о звуке 5:English: 48 kHz, AC3, 1.0 ch, 192 kbps |Audio recordings of William Golding reading from his novel|
    Субтитры:русские (R5-отдельным файлом, Петров), английские

    MediaInfo
    Complete name : Повелитель мухLord of the Flies.1963.CC.BDRemux.mkv
    Format : Matroska
    Format version : Version 2
    File size : 23.4 GiB
    Duration : 1h 30mn
    Overall bit rate mode : Variable
    Overall bit rate : 37.0 Mbps
    Movie name : Lord of the Flies.1963.CC.BDRemux
    Encoded date : UTC 2013-09-17 13:19:47
    Writing application : mkvmerge v5.0.1 (;Es ist Sommer;) built on Nov 6 2011 16:23:40
    Writing library : libebml v1.2.2 + libmatroska v1.3.0
    Video
    ID : 1
    Format : AVC
    Format/Info : Advanced Video Codec
    Format profile : High@L4.1
    Format settings, CABAC : Yes
    Format settings, ReFrames : 4 frames
    Codec ID : V_MPEG4/ISO/AVC
    Duration : 1h 30mn
    Bit rate mode : Variable
    Maximum bit rate : 37.0 Mbps
    Width : 1 920 pixels
    Height : 1 080 pixels
    Display aspect ratio : 16:9
    Frame rate : 23.976 fps
    Color space : YUV
    Chroma subsampling : 4:2:0
    Bit depth : 8 bits
    Scan type : Progressive
    Title : Lord of the Flies.1963.CC.BDRemux
    Language : English
    Default : Yes
    Forced : No
    Audio #1
    ID : 2
    Format : AC-3
    Format/Info : Audio Coding 3
    Mode extension : CM (complete main)
    Codec ID : A_AC3
    Duration : 1h 30mn
    Bit rate mode : Constant
    Bit rate : 192 Kbps
    Channel(s) : 2 channels
    Channel positions : Front: L R
    Sampling rate : 48.0 KHz
    Bit depth : 16 bits
    Compression mode : Lossy
    Stream size : 125 MiB (1%)
    Title : MVO
    Language : Russian
    Default : Yes
    Forced : No
    Audio #2
    ID : 3
    Format : AC-3
    Format/Info : Audio Coding 3
    Mode extension : CM (complete main)
    Codec ID : A_AC3
    Duration : 1h 30mn
    Bit rate mode : Constant
    Bit rate : 128 Kbps
    Channel(s) : 1 channel
    Channel positions : Front: C
    Sampling rate : 48.0 KHz
    Bit depth : 16 bits
    Compression mode : Lossy
    Stream size : 83.1 MiB (0%)
    Title : DVO
    Language : Russian
    Default : No
    Forced : No
    Audio #3
    ID : 4
    Format : PCM
    Codec ID : A_PCM/INT/LIT
    Duration : 1h 30mn
    Bit rate mode : Constant
    Sampling rate : 48.0 KHz
    Bit depth : 24 bits
    Language : English
    Default : No
    Forced : No
    Audio #4
    ID : 5
    Format : AC-3
    Format/Info : Audio Coding 3
    Mode extension : CM (complete main)
    Codec ID : A_AC3
    Duration : 1h 30mn
    Bit rate mode : Constant
    Bit rate : 192 Kbps
    Channel(s) : 1 channel
    Channel positions : Front: C
    Sampling rate : 48.0 KHz
    Bit depth : 16 bits
    Compression mode : Lossy
    Stream size : 125 MiB (1%)
    Title : Commentary #1
    Language : English
    Default : No
    Forced : No
    Audio #5
    ID : 6
    Format : AC-3
    Format/Info : Audio Coding 3
    Mode extension : CM (complete main)
    Codec ID : A_AC3
    Duration : 1h 30mn
    Bit rate mode : Constant
    Bit rate : 192 Kbps
    Channel(s) : 1 channel
    Channel positions : Front: C
    Sampling rate : 48.0 KHz
    Bit depth : 16 bits
    Compression mode : Lossy
    Stream size : 125 MiB (1%)
    Title : Commentary #2
    Language : English
    Default : No
    Forced : No
    Text #1
    ID : 7
    Format : UTF-8
    Codec ID : S_TEXT/UTF8
    Codec ID/Info : UTF-8 Plain Text
    Language : Russian
    Default : No
    Forced : No
    Text #2
    ID : 8
    Format : UTF-8
    Codec ID : S_TEXT/UTF8
    Codec ID/Info : UTF-8 Plain Text
    Language : English
    Default : No
    Forced : No


    Онлайн видео Повелитель мух


    Размер скачиваемого торрента: 23.45 GB (25177860923 Bytes)

    Повелитель мух/Lord of the Flies (1963) BDRemux 1080p торрент скачать бесплатно
    загрузка...
    Рейтинг →
     (голосов: 1, оценка 4/5, голосовать можно 1 раз )

    Другие торренты по теме:

  • Повелитель мух / Lord of the Flies (1963) BDRip by msltel | P, P2 скачать через торрент бесплатно
  • Повелитель мух / Lord of the Flies (1963) BDRip 1080p by msltel | P, P2
  • Повелитель мух / Lord of the Flies (1963) BDRip 720p by msltel | P, P2
  • Повелитель мух / Lord of the Flies (1963) BDRip-AVC от MediaClub | P, P2
  • Повелитель мух / Lord of the Flies (1990) BDRip 720p от Koenig | P, P2, A


    • Комментарии (0):

      Информация

      Информация

        Посетители, находящиеся в группе Гости, не могут оставлять комментарии в данной новости.

        ↓ Меню



        ↓ Опрос

        А Вы добавили сайт в закладки?
        Да
        Не


        Top 10 за месяц (Фильмы)