.
Авторизация | Регистрация
Хочешь лучшие торренты? Добавь свой email!
Добавить
» » Канал / The Canal (2014) WEB-DL 720p | L1 скачать торрент бесплатно




    Канал / The Canal (2014) WEB-DL 720p | L1 скачать торрент бесплатно

    Опубликовал: Админ | Дата: 27-02-2015, 11:10 | Просмотров: 237


    Детально о кино
    Русское название: Канал
    Русское название в мировом прокате: The Canal
    Создали в: 2014
    Категория жанра: ужасы, триллер
    Главный режиссер: Иван Кэвэна
    Актеры:Руперт Эванс, Антония Кэмпбелл-Хьюджес, Стив Орам, Ханна Хекстра, Kelly Byrne, Аннеке Блок, Энтони Мерфи,Calum Heath, Карл Шаабан, Maura Foley
    Сюжет фильма:Кино-архивариус Дэвид Уильямс живет с женой Элис и их пятилетним сыном Билли. Однажды Дэвид начинает подозревать, что Элис изменяет ему. Его беспокойство усугубляется, когда на работе он случайно натыкается на катушку с фильмом 1902 года, из которого он узнает, что его дом был местом, где произошла серия жестоких убийств, а убийцей был мужчина по имени Уильям Джексон, который убил свою жену за измену, а затем утопил их детей в канале..

    Снималось в: Ирландия
    Время просмотра: 01:33:40
    Тип перевода:Любительское (одноголосое) xixidok
    Файл
    Тип видео: MKV
    Качество фильма: WEB-DL 720p
    Информация о видео: 3859 kb/s, 1280x544
    Информация о звуке: Russian: MP3, 192 kb/s (2 ch)/English: AC3, 384 kb/s (6 ch)
    Субтитры: English


    MI
    Format : Matroska
    Format version : Version 4/Version 2
    File size : 2.96 GiB
    Duration : 1h 33mn
    Overall bit rate : 4 525 Kbps
    Encoded date : UTC 2014-10-17 21:52:47
    Writing application : mkvmerge v6.1.0 (;Old Devil;) built on Mar 4 2013 09:10:42
    Writing library : libebml v1.3.0 + libmatroska v1.4.0
    Video
    ID : 1
    Format : AVC
    Format/Info : Advanced Video Codec
    Format profile : Main@L3.1
    Format settings, CABAC : No
    Format settings, ReFrames : 2 frames
    Codec ID : V_MPEG4/ISO/AVC
    Duration : 1h 33mn
    Bit rate : 3 859 Kbps
    Width : 1 280 pixels
    Height : 544 pixels
    Display aspect ratio : 2.35:1
    Frame rate : 23.976 fps
    Color space : YUV
    Chroma subsampling : 4:2:0
    Bit depth : 8 bits
    Scan type : Progressive
    Bits/(Pixel*Frame) : 0.231
    Stream size : 2.52 GiB (85%)
    Language : English
    Default : Yes
    Forced : No
    Color primaries : BT.709-5, BT.1361, IEC 61966-2-4, SMPTE RP177
    Transfer characteristics : BT.709-5, BT.1361
    Matrix coefficients : BT.709-5, BT.1361, IEC 61966-2-4 709, SMPTE RP177
    Audio #1
    ID : 2
    Format : MPEG Audio
    Format version : Version 1
    Format profile : Layer 3
    Codec ID : A_MPEG/L3
    Codec ID/Hint : MP3
    Duration : 1h 33mn
    Bit rate mode : Constant
    Bit rate : 192 Kbps
    Channel(s) : 2 channels
    Sampling rate : 44.1 KHz
    Compression mode : Lossy
    Stream size : 129 MiB (4%)
    Language : Russian
    Default : Yes
    Forced : No
    Audio #2
    ID : 3
    Format : AC-3
    Format/Info : Audio Coding 3
    Mode extension : CM (complete main)
    Format settings, Endianness : Big
    Codec ID : A_AC3
    Duration : 1h 33mn
    Bit rate mode : Constant
    Bit rate : 384 Kbps
    Channel(s) : 6 channels
    Channel positions : Front: L C R, Side: L R, LFE
    Sampling rate : 48.0 KHz
    Bit depth : 16 bits
    Compression mode : Lossy
    Stream size : 257 MiB (8%)
    Language : English
    Default : No
    Forced : No
    Text
    ID : 4
    Format : UTF-8
    Codec ID : S_TEXT/UTF8
    Codec ID/Info : UTF-8 Plain Text
    Language : English
    Default : No
    Forced : No
    Menu
    00:00:00.000 : en:;Who Wants to See Ghosts;?
    00:05:16.000 : en:Five Years Later
    00:08:43.000 : en:The Walk to School, The Archive, First Film
    00:12:15.000 : en:The Party
    00:16:12.000 : en:Second Film
    00:18:22.000 : en:Following Alice and Discovery
    00:26:35.000 : en:Detective Mcnamara, Search for Alice
    00:41:34.000 : en:The Search for the Killer Begins
    00:46:35.000 : en:Testing the Old Camera
    00:55:08.000 : en:Skype Call
    01:04:30.000 : en:Woman in Canal
    01:09:45.000 : en:Mcnamara Returns, Police Station
    01:15:36.000 : en:Sewer and Watching Film with Claire
    01:23:03.000 : en:The Chase, And Revelations
    01:27:53.000 : en:Epilogue, ;Do You Want to Stay Here with Us;?
    Скриншоты для ознакомления

    Размер скачиваемого торрента: 2.96 GB (3178782617 Bytes)

    Канал/The Canal (2014) WEB-DL 720p | L1 торрент скачать бесплатно
    загрузка...
    Рейтинг →
     (голосов: 1, оценка 5/5, голосовать можно 1 раз )

    Другие торренты по теме:

  • Карточный домик / House of Cards (2013) WEBRip | Первый Канал
  • Голос (The Voice) (2012) DVB | Первый канал
  • Викинги / Vikings (2013) WEB-DLRip | Первый канал
  • Канал Блаумильх / Tealat Blaumilch (1969) DVDRip от ClubTorrent
  • Джо / Jo (2013) BDRip 720p | Первый канал
  • Джо / Jo (2013) BDRip | Первый канал
  • Джо / Jo (2013) HDTVRip | Первый канал
  • Остаться в живых / Lost (2004) НDRip от Scarabey | D | Первый канал


    • Комментарии (0):

      Информация

      Информация

        Посетители, находящиеся в группе Гости, не могут оставлять комментарии в данной новости.

        ↓ Меню



        ↓ Опрос

        А Вы добавили сайт в закладки?
        Да
        Не


        Top 10 за месяц (Фильмы)