.
Авторизация | Регистрация
Хочешь лучшие торренты? Добавь свой email!
Добавить
» » Братство клинков / Brotherhood of Blades / Bu Zai Chen Shui (2014) WEB-DLRip от BTT-TEAM и SOUND-GROUP скачать через торрент бесплатно




    Братство клинков / Brotherhood of Blades / Bu Zai Chen Shui (2014) WEB-DLRip от BTT-TEAM и SOUND-GROUP скачать через торрент бесплатно

    Опубликовал: Админ | Дата: 27-02-2015, 11:10 | Просмотров: 162


    Братство клинков/Brotherhood of Blades/Bu Zai Chen Shui
    Создали в: 2014
    Снималось в: Китай
    Категория жанра: Романтика, экшен, триллер
    Время просмотра: 01:47:02
    Перевод текста: Любительский (двухголосый закадровый)
    Русские субтитры: есть
    субтитры:китайский/английский хардсаб
    Главный режиссер: Lu Yang/Лу Ян
    Актеры: Chang Chen/Чан Чэнь, Liu Shishi/Лю Шиши, Wang Qianyuan/Ван Цяньюань, Li Dongxue/Ли Дунсюэ, Ethan Li/Этан Ли, Ye Qing/Е Цин, Zhu Dan/Чжу Дань, Nie Yuan/Не Юань, Jin Shijie/Цзинь Шицзе, Zhou Yiwei/Чжоу Ивэй, Zhao Lixin/Чжао Лисинь, Xu Li/Сюй Ли
    Сюжет: Братство клинков рассказывает о трех закадычных друзьях (Чан Чэнь, Ван Цяньюань и Ли Дунсюэ), служивших в Цзиньивей во времена династии Мин. Дворцовый евнух (Не Юань) отправляет их на поиски Вей Чжунсяня (Цзинь Шицзе), политика, который был вынужден уйти со своего высокого поста и бежать из Пекина. Братья Цзиньивей с успехом выполняют задачу, но вернувшись, узнают, что их задание лишь было началом тайного заговора.(с) JJ
    Релиз группы:и
    Доп. информация:Перевод текста:Ворон,Редакция:Лариса(ФСГАльянс)
    Консультация по китайскому:JJ
    Тип перевода:ВорониWenlana
    Не забываем установить Шрифты! Смотреть обязательно с форсированными субтитрами
    Прежде чем качать видео и комментировать, скачайте сэмпл и послушайте!

    Качество фильма: WEB-DLRip -Сэмпл
    Исходник: Brotherhood.Of.Blades.2014.1080p.WEB-DL-HDWinG
    Тип видео видео: AVI
    Информация о видео: 720x304 (2.37:1), 25 fps, XviD build 50 ~1565 kbps avg, 0.29 bit/pixel
    Информация о звуке: 48 kHz, AC3 Dolby Digital, 2/0 (L,R) ch, ~192 kbps (Русский)
    Информация о звуке: 48 kHz, AC3 Dolby Digital, 2/0 (L,R) ch, ~192 kbps (Китайский)
    Тип видео субтитров: форсированный(надписи)/полныеsoftsub (ass) -Шрифты
    Скриншоты для ознакомления



    Пример Субтитров

    Dialogue: 0,0:00:52.44,0:00:55.40,фильм,,0,0,0,,В 1620 годы, Вэй Чжун Сянь, Глава евнухов и Глава Императорских убийц,
    Dialogue: 0,0:00:55.40,0:00:58.51,фильм,,0,0,0,,командовал в императорском дворе на протяжении 8 лет.
    Dialogue: 0,0:00:59.32,0:01:01.30,фильм,,0,0,0,,В то время 7 из 10 дворцовых чиновников
    Dialogue: 0,0:01:01.32,0:01:04.79,фильм,,0,0,0,,были приспешниками Вэя, известные как Клика Евнухов.
    Dialogue: 0,0:01:05.64,0:01:07.95,фильм,,0,0,0,,Когда к власти пришёл Император Чун Чжень,
    Dialogue: 0,0:01:07.95,0:01:11.40,фильм,,0,0,0,,он отстранил Вэя от его обязанностей и сослал на отдалённую заставу Фэнян.
    Dialogue: 0,0:01:11.60,0:01:13.91,фильм,,0,0,0,,Хотя Вэй и пал, Клика оставалась там.
    Dialogue: 0,0:01:13.92,0:01:17.95,фильм,,0,0,0,,Чун Чжень хотел арестовать всех членов Клики.
    Dialogue: 0,0:01:19.20,0:01:20.91,фильм,,0,0,0,,Холодновато, не так ли, мастер Ма?
    Dialogue: 0,0:01:21.08,0:01:22.77,фильм,,0,0,0,,Большая чашка лапши поможет согреться,
    Dialogue: 0,0:01:22.80,0:01:25.47,фильм,,0,0,0,,- верно?N- Лапша...
    Dialogue: 0,0:01:26.16,0:01:27.76,фильм,,0,0,0,,В такое время
    Dialogue: 0,0:01:27.80,0:01:29.83,фильм,,0,0,0,,по улице бродят только 2 типа людей,
    Dialogue: 0,0:01:29.90,0:01:31.47,фильм,,0,0,0,,кроме ночной стражи.
    Dialogue: 0,0:01:31.48,0:01:33.30,фильм,,0,0,0,,Есть мы,
    Dialogue: 0,0:01:34.04,0:01:35.70,фильм,,0,0,0,,посланные гнилой удачей
    Dialogue: 0,0:01:35.80,0:01:37.53,фильм,,0,0,0,,патрулировать окрестности,
    Dialogue: 0,0:01:38.72,0:01:40.11,фильм,,0,0,0,,и ещё есть...
    Dialogue: 0,0:01:42.88,0:01:44.37,фильм,,0,0,0,,Что-то увидели?
    Dialogue: 0,0:01:48.30,0:01:49.97,фильм,,0,0,0,,Выходи.
    Dialogue: 0,0:01:58.82,0:02:00.47,сбоку,,0,0,0,,Императорский убийца
    Dialogue: 0,0:02:02.40,0:02:03.03,фильм,,0,0,0,,Что случилось?
    Dialogue: 0,0:02:03.50,0:02:04.40,фильм,,0,0,0,,Убираемся отсюда.
    Dialogue: 0,0:02:04.44,0:02:05.38,фильм,,0,0,0,,Бежим.
    Dialogue: 0,0:02:08.04,0:02:12.75,сбоку,,0,0,0,,Императорский убийцаN пытается схватить евнуха КликиN Сюй Сянь Чуня.
    Dialogue: 0,0:02:18.24,0:02:18.87,фильм,,0,0,0,,5 часов.
    Dialogue: 0,0:02:19.08,0:02:20.20,фильм,,0,0,0,,Запомни, 5 часов.
    Dialogue: 0,0:02:20.24,0:02:22.51,фильм,,0,0,0,,Возьми Сянь Чуня с собой в Сичжимэнь
    Dialogue: 0,0:02:23.52,0:02:25.25,фильм,,0,0,0,,и доставь это письмо господину Цао.
    Dialogue: 0,0:02:25.28,0:02:26.79,фильм,,0,0,0,,Ты покинешь город в тележке водовоза.
    Dialogue: 0,0:02:26.80,0:02:28.00,фильм,,0,0,0,,Я запомню это.
    Dialogue: 0,0:02:30.96,0:02:31.87,фильм,,0,0,0,,Что всё это значит?
    Dialogue: 0,0:02:31.92,0:02:34.00,фильм,,0,0,0,,Почему вы не одеты подобающе?
    Dialogue: 0,0:02:34.64,0:02:35.44,фильм,,0,0,0,,Невестка,
    Dialogue: 0,0:02:35.44,0:02:37.00,фильм,,0,0,0,,в чём дело?
    Dialogue: 0,0:02:39.44,0:02:41.15,фильм,,0,0,0,,Господин Чень,
    Dialogue: 0,0:02:41.20,0:02:42.93,фильм,,0,0,0,,я из Северного дивизиона Чжэньфу.
    Dialogue: 0,0:02:43.00,0:02:44.67,фильм,,0,0,0,,Моё имя Шень Лянь.
    Dialogue: 0,0:02:49.96,0:02:51.00,фильм,,0,0,0,,Пожалуйста, не пугайтесь.

    отчет MediaInfo

    Формат : AVI
    Формат/Информация : Audio Video Interleave
    Размер файла : 1,47 Гбайт
    Продолжительность : 1 ч. 47 м.
    Общий поток : 1965 Кбит/сек
    Программа кодирования : VirtualDubMod 1.5.10.2 (build 2542/release)
    Библиотека кодирования : VirtualDubMod build 2542/release
    Видео
    Идентификатор : 0
    Формат : MPEG-4 Visual
    Профиль формата : Advanced Simple@L5
    Параметр BVOP формата : 2
    Параметр QPel формата : Нет
    Параметр GMC формата : Без точки перехода
    Параметр матрицы формата : Default (MPEG)
    Идентификатор кодека : XVID
    Идентификатор кодека/Подсказка : XviD
    Продолжительность : 1 ч. 47 м.
    Битрейт : 1567 Кбит/сек
    Ширина : 720 пикселей
    Высота : 304 пикселя
    Соотношение сторон : 2,35:1
    Частота кадров : 25,000 кадров/сек
    Цветовое пространство : YUV
    Субдискретизация насыщенности : 4:2:0
    Битовая глубина : 8 бит
    Тип развёртки : Прогрессивная
    Метод сжатия : С потерями
    Бит/(Пиксели*Кадры) : 0.286
    Размер потока : 1,17 Гбайт (80%)
    Библиотека кодирования : XviD 1.2.1 (UTC 2008-12-04)
    Аудио #1
    Идентификатор : 1
    Формат : AC-3
    Формат/Информация : Audio Coding 3
    Расширение режима : CM (complete main)
    Параметр Endianness формата : Big
    Идентификатор кодека : 2000
    Продолжительность : 1 ч. 47 м.
    Вид битрейта : Постоянный
    Битрейт : 192 Кбит/сек
    Каналы : 2 канала
    Расположение каналов : Front: L R
    Частота : 48,0 КГц
    Битовая глубина : 16 бит
    Метод сжатия : С потерями
    Размер потока : 147 Мбайт (10%)
    Выравнивание : Разделение по промежуткам
    Продолжительность промежутка : 40 мс. (1,00 видеокадр)
    Время предзагрузки промежутка : 500 мс.
    Аудио #2
    Идентификатор : 2
    Формат : AC-3
    Формат/Информация : Audio Coding 3
    Расширение режима : CM (complete main)
    Параметр Endianness формата : Big
    Идентификатор кодека : 2000
    Продолжительность : 1 ч. 47 м.
    Вид битрейта : Постоянный
    Битрейт : 192 Кбит/сек
    Каналы : 2 канала
    Расположение каналов : Front: L R
    Частота : 48,0 КГц
    Битовая глубина : 16 бит
    Метод сжатия : С потерями
    Размер потока : 147 Мбайт (10%)
    Выравнивание : Разделение по промежуткам
    Продолжительность промежутка : 40 мс. (1,00 видеокадр)
    Время предзагрузки промежутка : 500 мс.


    Онлайн видео Братство клинков


    Размер скачиваемого торрента: 1.47 GB (1577934971 Bytes)

    Братство клинков/Brotherhood of Blades/Bu Zai Chen Shui (2014) WEB-DLRip от BTT-TEAM и SOUND-GROUP скачать через торрент бесплатно
    загрузка...
    Рейтинг →
     (голосов: 1, оценка 3/5, голосовать можно 1 раз )

    Другие торренты по теме:

  • Братство клинков / Xiu Chun Dao


    • Комментарии (0):

      Информация

      Информация

        Посетители, находящиеся в группе Гости, не могут оставлять комментарии в данной новости.

        ↓ Меню



        ↓ Опрос

        А Вы добавили сайт в закладки?
        Да
        Не


        Top 10 за месяц (Фильмы)