.
Авторизация | Регистрация
Хочешь лучшие торренты? Добавь свой email!
Добавить
» » Профиль убийцы / Profile of a Killer (2012) HDTVRip от MediaClub | P2 скачать через торрент бесплатно




    Профиль убийцы / Profile of a Killer (2012) HDTVRip от MediaClub | P2 скачать через торрент бесплатно

    Опубликовал: Админ | Дата: 27-02-2015, 11:10 | Просмотров: 370


    Детально о кино
    Русское название:Профиль убийцы
    Русское название в мировом прокате:Profile of a Killer
    Создали в:2012
    Категория жанра:Tриллер
    Главный режиссер:Кэспиан Тредуэлл-Оуэн
    Актеры:Джои Поллари, Эмили Фраденбург, Дастин Бут, Кен Мельхиор, Чандра Майклс, Софи Элиз Бристер, Крис Карлсон, Кирстен Грегерсон, Роберт Ларсен
    Сюжет фильма:
    Холодные воды реки выносят на берег 4 человеческих скелета. Результаты экспертизы свидетельствуют о том, что жертвы убиты недавно. Полиция начинает расследование и приглашает в помощь психолога из ФБР – всем ясно, что работает маньяк.

    Снималось в:США
    Киностудия:Metamorphosis Make-Up Artistry
    Время просмотра:01:31:51
    Перевод текста:Профессиональный двухголосый (НТВ+)
    Файл
    Кодек для видео:XviD
    Качество фильма:HDTVRip
    Информация о видео:1817 Кбит/с, 720x400, 25.000 кадр/с
    Информация о звуке:Русский (АС3, 6 ch, 448 Кбит/с)
    Семпл
    Скриншоты для ознакомления

    MI
    Общее
    Полное имя : Profil.ubijcy.2012.HDTVRip.MediaClub.avi
    Формат : AVI
    Формат/Информация : Audio Video Interleave
    Размер файла : 1,46 Гбайт
    Продолжительность : 1 ч. 31 м.
    Общий поток : 2274 Кбит/сек
    Название фильма : MediaClub
    Программа кодирования : VirtualDubMod 1.5.10.2 (build 2540/release)
    Библиотека кодирования : VirtualDubMod build 2540/release
    Видео
    Идентификатор : 0
    Формат : MPEG-4 Visual
    Профиль формата : Advanced Simple@L5
    Параметр BVOP формата : 2
    Параметр QPel формата : Нет
    Параметр GMC формата : Без точки перехода
    Параметр матрицы формата : Default (MPEG)
    Идентификатор кодека : XVID
    Идентификатор кодека/Подсказка : XviD
    Продолжительность : 1 ч. 31 м.
    Битрейт : 1817 Кбит/сек
    Ширина : 720 пикселей
    Высота : 400 пикселей
    Соотношение сторон : 16:9
    Частота кадров : 25,000 кадров/сек
    Цветовое пространство : YUV
    Субдискретизация насыщенности : 4:2:0
    Битовая глубина : 8 бит
    Тип развёртки : Прогрессивная
    Метод сжатия : С потерями
    Бит/(Пиксели*Кадры) : 0.252
    Размер потока : 1,17 Гбайт (80%)
    Библиотека кодирования : XviD 65
    Аудио
    Идентификатор : 1
    Формат : AC-3
    Формат/Информация : Audio Coding 3
    Расширение режима : CM (complete main)
    Параметр Endianness формата : Big
    Идентификатор кодека : 2000
    Продолжительность : 1 ч. 31 м.
    Вид битрейта : Постоянный
    Битрейт : 448 Кбит/сек
    Каналы : 6 каналов
    Расположение каналов : Front: L C R, Side: L R, LFE
    Частота : 48,0 КГц
    Битовая глубина : 16 бит
    Метод сжатия : С потерями
    Размер потока : 294 Мбайт (20%)
    Выравнивание : Разделение по промежуткам
    Продолжительность промежутка : 40 мс. (1,00 видеокадр)
    Время предзагрузки промежутка : 500 мс.

    Релиз подготовил:
    Залил: poja

    Онлайн видео Профиль убийцы


    Размер скачиваемого торрента: 1.46 GB (1566949376 Bytes)

    Профиль убийцы/Profile of a Killer (2012) HDTVRip от MediaClub | P2 скачать через торрент бесплатно
    загрузка...
    Рейтинг →
     (голосов: 1, оценка 4/5, голосовать можно 1 раз )

    Другие торренты по теме:

  • Профиль убийцы / Profile of a Killer (2012) SATRip от ClubTorrent | P2
  • Профиль убийцы / Profile of a Killer (2012) HDTVRip 720p от MediaClub | P2
  • Профиль убийцы-2 (2014-2015) HDTV 1080i от MediaClub
  • Профиль убийцы-2 (2015) HDTVRip-AVC от Files-x


    • Комментарии (0):

      Информация

      Информация

        Посетители, находящиеся в группе Гости, не могут оставлять комментарии в данной новости.

        ↓ Меню



        ↓ Опрос

        А Вы добавили сайт в закладки?
        Да
        Не


        Top 10 за месяц (Фильмы)