.
Авторизация | Регистрация
Хочешь лучшие торренты? Добавь свой email!
Добавить
» » Эйр Америка / Air America (1990) DVD-9 скачать через торрент бесплатно




    Эйр Америка / Air America (1990) DVD-9 скачать через торрент бесплатно

    Опубликовал: Админ | Дата: 27-02-2015, 11:10 | Просмотров: 189


    Детально о кино
    Русское название:Эйр Америка
    Русское название в мировом прокате:Air America
    Создали в:1990
    Категория жанра:Боевик, комедия, приключения
    Главный режиссер:Роджер Споттисвуд
    Актеры:Мэл Гибсон, Роберт Дауни мл., Нэнси Трэвис, Кен Дженкинс, Дэвид Маршалл Грант, Лэйн Смит, Арт ЛаФлер, Нед Айзенберг, Маршалл Белл, Дэвид Бауи, Берт Куок, Тим Томерсон, Харви Джейсон, Эрни Лайвли, Берк Байрнс, Грег Кин, Майкл Дудикофф, Синяи Пленжпанит, Яни Трэмод, Васун Уттамаедин, Джон Ладальски
    Сюжет фильма:1969 год. Легкомысленный молодой пилот Билли, уволенный с радиостанции (он вещал прямо с вертолета над Лос-Анджелесом) принимает предложение от частной авиакомпании Эйр Америка поработать в Лаосе, по соседству с воюющим Вьетнамом. То, что в Лаосе тоже неспокойно, а выполнение заданий будет связано с риском для жизни, оказывается для Билли полной неожиданностью. Ведь еще совсем недавно президент США Ричард Никсон заявлял по телевидению о том, что в Лаосе нет американских войск. Напарником новичка становится опытный пилот, который давно живет в Лаосе, обзавелся тут семьей и неплохо приспособился к местным условиям. Есть и еще один неучтенный фактор. И руководство компании, и пилоты неплохо зарабатывают на контрабанде оружия и наркотиков… Легкая, приключенческая комедия для любой аудитории. Поставлен фильм по книге Кристофера Роббинса.

    Снималось в:США
    Киностудия:Carolco Pictures Inc., IndieProd Company Productions
    Время просмотра:01:52:36
    Перевод текста:Профессиональный многоголосый, автрский
    Файл
    Кодек для видео:MPEG-2
    Качество фильма:DVD-9
    Информация о видео:MPEG2, PAL, 16:9 (720x576) VBR, 25 кадр/с
    Информация о звуке:Русский/Английский/DD 2.0 (192Kbps)
    Перевод

    1. Профессиональный многоголосый
    2. Авторский (Визгунов)
    3. Авторский (Гаврилов)
    4. Авторский (Либергал)
    5. Английский
    Меню
    DVDInfo
    Size: 7.10 Gb ( 7 442 054 KBytes ) - DVD-9
    Enabled regions: 1, 2, 3, 4, 5, 6, 7, 8
    VTS_01 :
    Play Length: 01:52:36
    Video: PAL 16:9 (720x576) VBR, Auto PanScan
    Audio:
    Russian (Dolby AC3, 2 ch)
    Russian (Dolby AC3, 2 ch)
    Russian (Dolby AC3, 2 ch)
    Russian (Dolby AC3, 2 ch)
    English (Dolby AC3, 2 ch)
    Menu Video:
    PAL 4:3 (704x576) VBR
    Menu English Language Unit :
    Root Menu
    MediaInfo
    Общее
    Полное имя : D:ААА2Эйр АмерикаVIDEO_TSVTS_01_1.VOB
    Формат : MPEG-PS
    Размер файла : 1000 Мбайт
    Продолжительность : 15 м.
    Режим общего битрейта : Переменный
    Общий поток : 8753 Кбит/сек
    Видео
    Идентификатор : 224 (0xE0)
    Формат : MPEG Video
    Версия формата : Version 2
    Профиль формата : Main@Main
    Параметр BVOP формата : Да
    Параметр матрицы формата : По умолчанию
    Параметр GOP формата : M=3, N=12
    Продолжительность : 15 м.
    Вид битрейта : Переменный
    Битрейт : 7618 Кбит/сек
    Максимальный битрейт : 8648 Кбит/сек
    Ширина : 720 пикселей
    Высота : 576 пикселей
    Соотношение сторон : 16:9
    Частота кадров : 24,000 кадра/сек
    Стандарт вещания : PAL
    Цветовое пространство : YUV
    Субдискретизация насыщенности : 4:2:0
    Битовая глубина : 8 бит
    Тип развёртки : Прогрессивная
    Порядок развёртки : 2:2:2:2:2:2:2:2:2:2:2:3 Pulldown
    Метод сжатия : С потерями
    Бит/(Пиксели*Кадры) : 0.765
    TimeCode_FirstFrame : 00:00:00:00
    TimeCode_Source : Group of pictures t_head
    Размер потока : 870 Мбайт (87%)
    Аудио #1
    Идентификатор : 189 (0xBD)-128 (0x80)
    Формат : AC-3
    Формат/Информация : Audio Coding 3
    Расширение режима : CM (complete main)
    Параметр Endianness формата : Big
    Режим смешивания : DVD-Video
    Продолжительность : 15 м.
    Вид битрейта : Постоянный
    Битрейт : 192 Кбит/сек
    Каналы : 2 канала
    Расположение каналов : Front: L R
    Частота : 48,0 КГц
    Битовая глубина : 16 бит
    Метод сжатия : С потерями
    Размер потока : 21,9 Мбайт (2%)
    Аудио #2
    Идентификатор : 189 (0xBD)-129 (0x81)
    Формат : AC-3
    Формат/Информация : Audio Coding 3
    Расширение режима : CM (complete main)
    Параметр Endianness формата : Big
    Режим смешивания : DVD-Video
    Продолжительность : 15 м.
    Вид битрейта : Постоянный
    Битрейт : 192 Кбит/сек
    Каналы : 2 канала
    Расположение каналов : Front: L R
    Частота : 48,0 КГц
    Битовая глубина : 16 бит
    Метод сжатия : С потерями
    Размер потока : 21,9 Мбайт (2%)
    Аудио #3
    Идентификатор : 189 (0xBD)-130 (0x82)
    Формат : AC-3
    Формат/Информация : Audio Coding 3
    Расширение режима : CM (complete main)
    Параметр Endianness формата : Big
    Режим смешивания : DVD-Video
    Продолжительность : 15 м.
    Вид битрейта : Постоянный
    Битрейт : 192 Кбит/сек
    Каналы : 2 канала
    Расположение каналов : Front: L R
    Частота : 48,0 КГц
    Битовая глубина : 16 бит
    Метод сжатия : С потерями
    Размер потока : 21,9 Мбайт (2%)
    Аудио #4
    Идентификатор : 189 (0xBD)-131 (0x83)
    Формат : AC-3
    Формат/Информация : Audio Coding 3
    Расширение режима : CM (complete main)
    Параметр Endianness формата : Big
    Режим смешивания : DVD-Video
    Продолжительность : 15 м.
    Вид битрейта : Постоянный
    Битрейт : 192 Кбит/сек
    Каналы : 2 канала
    Расположение каналов : Front: L R
    Частота : 48,0 КГц
    Битовая глубина : 16 бит
    Метод сжатия : С потерями
    Размер потока : 21,9 Мбайт (2%)
    Аудио #5
    Идентификатор : 189 (0xBD)-132 (0x84)
    Формат : AC-3
    Формат/Информация : Audio Coding 3
    Расширение режима : CM (complete main)
    Параметр Endianness формата : Big
    Режим смешивания : DVD-Video
    Продолжительность : 15 м.
    Вид битрейта : Постоянный
    Битрейт : 192 Кбит/сек
    Каналы : 2 канала
    Расположение каналов : Front: L R
    Частота : 48,0 КГц
    Битовая глубина : 16 бит
    Метод сжатия : С потерями
    Размер потока : 21,9 Мбайт (2%)
    Меню

    Скриншоты для ознакомления

    Залил: YArl
    Размер скачиваемого торрента: 7.10 GB (7620663296 Bytes)

    Эйр Америка/Air America (1990) DVD-9 скачать через торрент бесплатно
    загрузка...
    Рейтинг →
     (голосов: 1, оценка 3/5, голосовать можно 1 раз )

    Другие торренты по теме:

  • Эйр Америка / Air America (1990) BDRip-AVC | P, A скачать через торрент бесплатно
  • Эйр Америка / Air America (1990) DVDRip | КПК от Generalfilm
  • Эйр Америка / Air America / 1990 / 2 x ПМ, АП (Визгунов, Горчаков, Либергал, Матвеев), СТ / BDRip (720p)


    • Комментарии (0):

      Информация

      Информация

        Посетители, находящиеся в группе Гости, не могут оставлять комментарии в данной новости.

        ↓ Меню



        ↓ Опрос

        А Вы добавили сайт в закладки?
        Да
        Не


        Top 10 за месяц (Фильмы)