.
Авторизация | Регистрация
Хочешь лучшие торренты? Добавь свой email!
Добавить
» » Дикте Свендсен / Dicte (2014) BDRip 720p от HDClub | Русский Репортаж скачать через торрент бесплатно




    Дикте Свендсен / Dicte (2014) BDRip 720p от HDClub | Русский Репортаж скачать через торрент бесплатно

    Опубликовал: Админ | Дата: 27-02-2015, 11:10 | Просмотров: 275


    Детально о кино
    Русское название:Дикте Свендсен
    Русское название в мировом прокате:Dicte
    Создали в:2014
    Категория жанра:Детектив, драма
    Главный режиссер:Каспер Барфоэд, Шарлотте Сакс Боструп, Янник Йохансен
    Актеры:Ибен Яйле, Ларс Брюгманн, Лерке Винтер Андерсен, Дитте Ильва Ольсен, Эмили Крузе, Дар Салим, Ларс Ранте, Петер Шрёдер, Туе Эрстед Расмуссен, Миккель Боэ Фёльсгор, Якоб Агермосе Педерсен, Клес Банг, Ларс Арвад, Болетте Шрёдер, Эмили Вернер Семмельрот, Мира Лабович, Ульрик Йеппесен, Бринетте Одгор
    Сюжет фильма:
    Место действия детективного сериала разворачивается в Орхусе, втором по величине городе Дании. Журналистка Дикте Свендсен (Ибен Яйле), разведясь с мужем, переезжает сюда вместе с дочерью Розе (Эмили Крузе) и устраивается в местную газету Dagbladet. Вскоре она знакомится с представителями местной полиции — инспектором Джоном Вагнером (Ларс Брюгманн) и его помощницей Линдой Бендтсен (Дитте Ильва Ольсен), и по воле случая присоединяется к расследованию смерти молодой девушки из Восточной Европы. Но не только это беспокоит Дикте Свендсен — 24 года назад, после таинственной пропажи ее новорожденного сына, она прекратила всякое общение с родителями, которых она винит в случившемся. Сумеет ли она узнать правду про своего сына, попутно помогая расследованию? От создателей сериала Тот, кто убивает
    Содержание
    01: Personskade - del 1/Травма. Часть 1
    02: Personskade - del 2/Травма. Часть 2
    03: Selvrisiko - del 1
    04: Selvrisiko - del 2
    05: Skjulte fejl og mangler - del 1
    06: Skjulte fejl og mangler - del 2
    07: Liv og legeme - del 1
    08: Liv og legeme - del 2
    09: Vold og magt - del 1
    10: Vold og magt - del 2
    Дополнительно
    - За запись звука спасибо teftel.
    - Субтитры только на 1-2 серии, перевод Станислав Бельков.
    - Исходный диск приобретен в рамках сервиса Копилка: Помоги с Blu-ray. Благодарим: RAUL, Kator, igorlit, charmant, Tucha, ntnkiev.
    - Сохранены оригинальные чаптеры как на Blu-ray.


    Снималось в:Дания, Miso Film
    Время просмотра:10 x ~ 00:50:00
    Перевод текста:Многоголосый закадровый, Русский Репортаж, 100ТВ
    Файл
    Кодек для видео:MPEG-4 AVC
    Качество фильма:BDRip 720p
    Информация о видео:~ 6991 Кбит/с, 1280x720, 25 кадр/с
    Информация о звуке:Русский (АС3, 2 ch, 192 Кбит/с), датский (АС3, 6 ch, 640 Кбит/с)
    Субтитры:Russian (1-2), Dan, Fin, Nor, Swe
    MI
    Общее
    Уникальный идентификатор : 219567300140111419248652044600221775778 (0xA52F1FB253CFD7CE9F7E70B22DAE37A2)
    Полное имя : Dicte.DK.S01.720p.BluRay.Rus.Dan.HDCLUB-SbRDicte.DK.S01E06.Skjulte.fejl.og.mangler.del.2.720p.BluRay.Rus.Dan.HDCLUB-SbR.mkv
    Формат : Matroska
    Версия формата : Version 4/Version 2
    Размер файла : 1,66 Гбайт
    Продолжительность : 42 м.
    Общий поток : 5539 Кбит/сек
    Дата кодирования : UTC 2014-09-23 16:24:01
    Программа кодирования : mkvmerge v7.2.0 (;On Every Street;) 64bit built on Sep 13 2014 15:52:10
    Библиотека кодирования : libebml v1.3.0 + libmatroska v1.4.1
    DURATION : 00:42:25.400000000
    NUMBER_OF_FRAMES : 412
    NUMBER_OF_BYTES : 17077
    _STATISTICS_WRITING_APP : mkvmerge v7.2.0 (;On Every Street;) 64bit built on Sep 13 2014 15:52:10
    _STATISTICS_WRITING_DATE_UTC : 2014-09-23 16:24:01
    _STATISTICS_TAGS : BPS DURATION NUMBER_OF_FRAMES NUMBER_OF_BYTES
    Видео
    Идентификатор : 1
    Формат : AVC
    Формат/Информация : Advanced Video Codec
    Профиль формата : High@L4.1
    Параметр CABAC формата : Да
    Параметр ReFrames формата : 9 кадров
    Идентификатор кодека : V_MPEG4/ISO/AVC
    Продолжительность : 42 м.
    Битрейт : 4597 Кбит/сек
    Ширина : 1280 пикселей
    Высота : 720 пикселей
    Соотношение сторон : 16:9
    Режим частоты кадров : Постоянный
    Частота кадров : 25,000 кадров/сек
    Цветовое пространство : YUV
    Субдискретизация насыщенности : 4:2:0
    Битовая глубина : 8 бит
    Тип развёртки : Прогрессивная
    Бит/(Пиксели*Кадры) : 0.200
    Размер потока : 1,38 Гбайт (83%)
    Заголовок : Dicte. Saeson 01 Episode 06 Skjulte fejl og mangler - del 2 DK
    Библиотека кодирования : x264 core 142 r2479kMod dd79a61
    Настройки программы : cabac=1/ref=9/deblock=1:-3:-3/analyse=0x3:0x133/me=umh/subme=11/psy=1/fade_compensate=0.00/psy_rd=1.00:0.00/mixed_ref=1/me_range=32/chroma_me=1/trellis=2/8x8dct=1/cqm=0/deadzone=21,11/fast_pskip=1/chroma_qp_offset=-2/threads=12/lookahead_threads=3/sliced_threads=0/nr=0/decimate=1/interlaced=0/bluray_compat=0/constrained_intra=0/fgo=0/bframes=12/b_pyramid=2/b_adapt=2/b_bias=0/direct=3/weightb=1/open_gop=0/weightp=2/keyint=250/keyint_min=25/scenecut=40/intra_refresh=0/rc=crf/mbtree=0/crf=16.5000/qcomp=0.65/qpmin=0/qpmax=69/qpstep=4/ip_ratio=1.25/pb_ratio=1.20/aq=1:0.60
    Язык : Danish
    Default : Да
    Forced : Нет
    DURATION : 00:42:59.760000000
    NUMBER_OF_FRAMES : 64494
    NUMBER_OF_BYTES : 1517099250
    _STATISTICS_WRITING_APP : mkvmerge v7.2.0 (;On Every Street;) 64bit built on Sep 13 2014 15:52:10
    _STATISTICS_WRITING_DATE_UTC : 2014-09-23 16:24:01
    _STATISTICS_TAGS : BPS DURATION NUMBER_OF_FRAMES NUMBER_OF_BYTES
    Аудио #1
    Идентификатор : 2
    Формат : AC-3
    Формат/Информация : Audio Coding 3
    Расширение режима : CM (complete main)
    Параметр Endianness формата : Big
    Идентификатор кодека : A_AC3
    Продолжительность : 42 м.
    Вид битрейта : Постоянный
    Битрейт : 192 Кбит/сек
    Каналы : 2 канала
    Расположение каналов : Front: L R
    Частота : 48,0 КГц
    Битовая глубина : 16 бит
    Метод сжатия : С потерями
    Размер потока : 59,0 Мбайт (3%)
    Заголовок : AC3 2.0 @ 192 Kbps - Русский Репортаж, 100ТВ
    Язык : Russian
    Default : Да
    Forced : Нет
    Аудио #2
    Идентификатор : 3
    Формат : AC-3
    Формат/Информация : Audio Coding 3
    Расширение режима : CM (complete main)
    Параметр Endianness формата : Big
    Идентификатор кодека : A_AC3
    Продолжительность : 42 м.
    Вид битрейта : Постоянный
    Битрейт : 640 Кбит/сек
    Каналы : 6 каналов
    Расположение каналов : Front: L C R, Side: L R, LFE
    Частота : 48,0 КГц
    Битовая глубина : 16 бит
    Метод сжатия : С потерями
    Размер потока : 197 Мбайт (12%)
    Заголовок : AC3 5.1 @ 640 Kbps
    Язык : Danish
    Default : Нет
    Forced : Нет
    Текст #1
    Идентификатор : 4
    Формат : UTF-8
    Идентификатор кодека : S_TEXT/UTF8
    Идентификатор кодека/Информация : UTF-8 Plain Text
    Язык : Danish
    Default : Нет
    Forced : Нет
    Текст #2
    Идентификатор : 5
    Формат : UTF-8
    Идентификатор кодека : S_TEXT/UTF8
    Идентификатор кодека/Информация : UTF-8 Plain Text
    Язык : Finnish
    Default : Нет
    Forced : Нет
    Текст #3
    Идентификатор : 6
    Формат : UTF-8
    Идентификатор кодека : S_TEXT/UTF8
    Идентификатор кодека/Информация : UTF-8 Plain Text
    Язык : Norwegian
    Default : Нет
    Forced : Нет
    Текст #4
    Идентификатор : 7
    Формат : UTF-8
    Идентификатор кодека : S_TEXT/UTF8
    Идентификатор кодека/Информация : UTF-8 Plain Text
    Язык : Swedish
    Default : Нет
    Forced : Нет
    Меню
    00:00:00.000 : en:00:00:00.000
    00:09:59.640 : en:00:09:59.640
    00:19:59.840 : en:00:19:59.840
    00:29:59.840 : en:00:29:59.840
    00:39:59.760 : en:00:39:59.760

    Скриншоты для ознакомления

    Релиз подготовил:by HPotter
    Размер скачиваемого торрента: 17.80 GB (19113816736 Bytes)

    Дикте Свендсен/Dicte (2014) BDRip 720p от HDClub | Русский Репортаж скачать через торрент бесплатно
    загрузка...
    Рейтинг →
     (голосов: 1, оценка 4/5, голосовать можно 1 раз )

    Другие торренты по теме:



      Комментарии (0):

      Информация

      Информация

        Посетители, находящиеся в группе Гости, не могут оставлять комментарии в данной новости.

        ↓ Меню



        ↓ Опрос

        А Вы добавили сайт в закладки?
        Да
        Не


        Top 10 за месяц (Фильмы)