.
Авторизация | Регистрация
Хочешь лучшие торренты? Добавь свой email!
Добавить
» » Почтальон / The Postman (1997) DVD-9 скачать через торрент бесплатно




    Почтальон / The Postman (1997) DVD-9 скачать через торрент бесплатно

    Опубликовал: Админ | Дата: 27-02-2015, 11:10 | Просмотров: 277


    Детально о кино
    Русское название:Почтальон
    Русское название в мировом прокате:The Postman
    Создали в:1997
    Категория жанра:Фантастика, боевик, драма, приключения
    Главный режиссер:Кевин Костнер
    Актеры:Кевин Костнер, Уилл Пэттон, Лоренц Тейт, Оливия Уильямс, Джеймс Руссо, Дэниэл фон Барген, Том Петти, Скотт Бэйрстоу, Джованни Рибизи, Роберта Максвелл
    Сюжет фильма:После глобальной войны и эпидемии выжившие остатки людей селятся разрозненными группами на территории бывших Соединенных Штатов Америки. Герой Кевина Костнера предпочитает жить одиночкой. Он скитается вместе со своим дрессированным мулом из селения в селение, давая представления из Шекспира. Правит всем тиран — генерал Бетлехем. Его армия собирает дань и рекрутов со всех, кто пытается жить мирно. Героя фильма насильно взяли в армию генерала, но он бежал и нашел в джипе скелет почтальона, надел его форму и взял сумку с письмами. Придя в один из лагерей, он представился почтальоном новых возрожденных Соединенных Штатов Америки. Люди поверили ему, также в городке он нашел свою любовь… Десятки последователей почтальона стали доставлять письма, что привело к вооруженному столкновению сил генерала с новой армией Свободы.

    Снималось в:США
    Киностудия:Tig Productions, Warner Bros. Pictures Co.
    Время просмотра:02:57:49
    Перевод текста:Дублированный, профессиональный многоголосый, авторский
    Файл
    Кодек для видео:MPEG-2
    Качество фильма:DVD-9
    Информация о видео:MPEG2, PAL, 16:9 (720x576) VBR, 25 кадр/с
    Информация о звуке:Русский/Английский/Французский DD 5.1 (384Kbps); Русский DD 2.0 (192Kbps)
    Перевод

    1. Дублированный
    2. Профессиональный многоголосый
    3. Профессиональный многоголосый (Россия)
    4. Профессиональный многоголосый (НТВ)
    5. Авторский (Живов)
    6. Авторский (Кашкин)
    7. Английский
    8. Французский
    Меню
    DVDInfo
    Title:
    Size: 7.76 Gb ( 8 135 180 KBytes ) - DVD-9
    Enabled regions: 1, 2, 3, 4, 5, 6, 7, 8
    VTS_01 :
    Play Length: 02:57:49
    Video: PAL 16:9 (720x576) VBR, Auto PanScan
    Audio:
    Russian (Dolby AC3, 6 ch)
    Russian (Dolby AC3, 6 ch)
    Russian (Dolby AC3, 2 ch)
    Russian (Dolby AC3, 2 ch)
    Russian (Dolby AC3, 6 ch)
    Russian (Dolby AC3, 2 ch)
    English (Dolby AC3, 6 ch)
    Francais (Dolby AC3, 6 ch)
    Menu Video:
    PAL 4:3 (704x576) VBR
    Menu English Language Unit :
    Root Menu
    MediaInfo
    Общее
    Полное имя : D:ААА2ПОЧТАЛЬОНVIDEO_TSVTS_01_1.VOB
    Формат : MPEG-PS
    Размер файла : 1000 Мбайт
    Продолжительность : 19 м.
    Режим общего битрейта : Переменный
    Общий поток : 7178 Кбит/сек
    Видео
    Идентификатор : 224 (0xE0)
    Формат : MPEG Video
    Версия формата : Version 2
    Профиль формата : Main@Main
    Параметр BVOP формата : Да
    Параметр матрицы формата : По умолчанию
    Параметр GOP формата : M=3, N=12
    Продолжительность : 19 м.
    Вид битрейта : Переменный
    Битрейт : 4539 Кбит/сек
    Максимальный битрейт : 8256 Кбит/сек
    Ширина : 720 пикселей
    Высота : 576 пикселей
    Соотношение сторон : 16:9
    Частота кадров : 24,000 кадра/сек
    Стандарт вещания : PAL
    Цветовое пространство : YUV
    Субдискретизация насыщенности : 4:2:0
    Битовая глубина : 8 бит
    Тип развёртки : Прогрессивная
    Порядок развёртки : 2:2:2:2:2:2:2:2:2:2:2:3 Pulldown
    Метод сжатия : С потерями
    Бит/(Пиксели*Кадры) : 0.456
    TimeCode_FirstFrame : 00:00:00:00
    TimeCode_Source : Group of pictures t_head
    Размер потока : 632 Мбайт (63%)
    Аудио #1
    Идентификатор : 189 (0xBD)-128 (0x80)
    Формат : AC-3
    Формат/Информация : Audio Coding 3
    Расширение режима : CM (complete main)
    Параметр Endianness формата : Big
    Режим смешивания : DVD-Video
    Продолжительность : 19 м.
    Вид битрейта : Постоянный
    Битрейт : 384 Кбит/сек
    Каналы : 6 каналов
    Расположение каналов : Front: L C R, Side: L R, LFE
    Частота : 48,0 КГц
    Битовая глубина : 16 бит
    Метод сжатия : С потерями
    Размер потока : 53,5 Мбайт (5%)
    Аудио #2
    Идентификатор : 189 (0xBD)-129 (0x81)
    Формат : AC-3
    Формат/Информация : Audio Coding 3
    Расширение режима : CM (complete main)
    Параметр Endianness формата : Big
    Режим смешивания : DVD-Video
    Продолжительность : 19 м.
    Вид битрейта : Постоянный
    Битрейт : 384 Кбит/сек
    Каналы : 6 каналов
    Расположение каналов : Front: L C R, Side: L R, LFE
    Частота : 48,0 КГц
    Битовая глубина : 16 бит
    Метод сжатия : С потерями
    Размер потока : 53,5 Мбайт (5%)
    Аудио #3
    Идентификатор : 189 (0xBD)-130 (0x82)
    Формат : AC-3
    Формат/Информация : Audio Coding 3
    Расширение режима : CM (complete main)
    Параметр Endianness формата : Big
    Режим смешивания : DVD-Video
    Продолжительность : 19 м.
    Вид битрейта : Постоянный
    Битрейт : 192 Кбит/сек
    Каналы : 2 канала
    Расположение каналов : Front: L R
    Частота : 48,0 КГц
    Битовая глубина : 16 бит
    Метод сжатия : С потерями
    Размер потока : 26,8 Мбайт (3%)
    Аудио #4
    Идентификатор : 189 (0xBD)-131 (0x83)
    Формат : AC-3
    Формат/Информация : Audio Coding 3
    Расширение режима : CM (complete main)
    Параметр Endianness формата : Big
    Режим смешивания : DVD-Video
    Продолжительность : 19 м.
    Вид битрейта : Постоянный
    Битрейт : 192 Кбит/сек
    Каналы : 2 канала
    Расположение каналов : Front: L R
    Частота : 48,0 КГц
    Битовая глубина : 16 бит
    Метод сжатия : С потерями
    Размер потока : 26,8 Мбайт (3%)
    Аудио #5
    Идентификатор : 189 (0xBD)-132 (0x84)
    Формат : AC-3
    Формат/Информация : Audio Coding 3
    Расширение режима : CM (complete main)
    Параметр Endianness формата : Big
    Режим смешивания : DVD-Video
    Продолжительность : 19 м.
    Вид битрейта : Постоянный
    Битрейт : 384 Кбит/сек
    Каналы : 6 каналов
    Расположение каналов : Front: L C R, Side: L R, LFE
    Частота : 48,0 КГц
    Битовая глубина : 16 бит
    Метод сжатия : С потерями
    Размер потока : 53,5 Мбайт (5%)
    Аудио #6
    Идентификатор : 189 (0xBD)-133 (0x85)
    Формат : AC-3
    Формат/Информация : Audio Coding 3
    Расширение режима : CM (complete main)
    Параметр Endianness формата : Big
    Режим смешивания : DVD-Video
    Продолжительность : 19 м.
    Вид битрейта : Постоянный
    Битрейт : 192 Кбит/сек
    Каналы : 2 канала
    Расположение каналов : Front: L R
    Частота : 48,0 КГц
    Битовая глубина : 16 бит
    Метод сжатия : С потерями
    Размер потока : 26,8 Мбайт (3%)
    Аудио #7
    Идентификатор : 189 (0xBD)-134 (0x86)
    Формат : AC-3
    Формат/Информация : Audio Coding 3
    Расширение режима : CM (complete main)
    Параметр Endianness формата : Big
    Режим смешивания : DVD-Video
    Продолжительность : 19 м.
    Вид битрейта : Постоянный
    Битрейт : 384 Кбит/сек
    Каналы : 6 каналов
    Расположение каналов : Front: L C R, Side: L R, LFE
    Частота : 48,0 КГц
    Битовая глубина : 16 бит
    Метод сжатия : С потерями
    Размер потока : 53,5 Мбайт (5%)
    Аудио #8
    Идентификатор : 189 (0xBD)-135 (0x87)
    Формат : AC-3
    Формат/Информация : Audio Coding 3
    Расширение режима : CM (complete main)
    Параметр Endianness формата : Big
    Режим смешивания : DVD-Video
    Продолжительность : 19 м.
    Вид битрейта : Постоянный
    Битрейт : 384 Кбит/сек
    Каналы : 6 каналов
    Расположение каналов : Front: L C R, Side: L R, LFE
    Частота : 48,0 КГц
    Битовая глубина : 16 бит
    Метод сжатия : С потерями
    Размер потока : 53,5 Мбайт (5%)
    Меню

    Скриншоты для ознакомления

    Залил: YArl

    Онлайн видео Почтальон


    Размер скачиваемого торрента: 7.76 GB (8330424320 Bytes)

    Почтальон/The Postman (1997) DVD-9 скачать через торрент бесплатно
    загрузка...
    Рейтинг →
     (голосов: 1, оценка 3/5, голосовать можно 1 раз )

    Другие торренты по теме:

  • Почтальон / The Postman (1997) BDRip-HEVC 1080p | D, P
  • Почтальон / The Postman (1997) BDRip 1080p
  • Почтальон / The Postman (1997) BDRip 1080p от FREEISLAND скачать через торрент бесплатно
  • Почтальон всегда звонит дважды / The Postman Always Rings Twice (1946) DVDRip | P скачать через торрент бесплатно
  • Почтальон Пэт (2014)
  • Почтальон Пэт / Postman Pat: The Movie (2014) HDRip | D | Чистый звук
  • Почтальон Пэт / Postman Pat: The Movie
  • Почтальон Пэт / Postman Pat: The Movie (2014) BDRip 1080p от Ash61 | 3D-Video | halfOU


    • Комментарии (0):

      Информация

      Информация

        Посетители, находящиеся в группе Гости, не могут оставлять комментарии в данной новости.

        ↓ Меню



        ↓ Опрос

        А Вы добавили сайт в закладки?
        Да
        Не


        Top 10 за месяц (Фильмы)