.
Авторизация | Регистрация
Хочешь лучшие торренты? Добавь свой email!
Добавить
» » Бизнес ради любви / Beauty and the Briefcase (2010) HDTVRip 720p | P2 скачать через торрент бесплатно




    Бизнес ради любви / Beauty and the Briefcase (2010) HDTVRip 720p | P2 скачать через торрент бесплатно

    Опубликовал: Админ | Дата: 27-02-2015, 11:10 | Просмотров: 160


    Детально о кино
    Русское название:Бизнес ради любви
    Русское название в мировом прокате:Beauty the Briefcase
    Создали в:2010
    Категория жанра:мелодрама, комедия
    Главный режиссер:Джил Джангер
    Актеры:Хилари Дафф, Крис Кармак, Майкл МакМиллиан, Аманда Уолш, Кевин Киркпатрик, Дженнифер Кулидж, Мэтт Даллас, Джеймс МакДэниэл, Джейми Прессли, Брэнди Коулмэн
    Сюжет фильма:
    Лэйн — молодая нью-йоркская журналистка, мечтающая о любви и карьере в Космо. По протекции лучшей подруги Джоан девушка попадает в модный журнал на стажировку. Во что бы то ни стало ее статья должна быть лучшей, но… в её жизни совершенно неожиданно появляется Он — волшебный мужчина, отвечающий всем требованиям из списка идеального. Что же сильнее — желание быть любимой или карьера?

    Снималось в:США
    Киностудия:ABC Family
    Время просмотра:01:24:00
    Перевод текста:Профессиональный двухголосый,закадровый
    Файл
    Кодек для видео:H.264
    Качество фильма:HDTVRip 720p
    Информация о видео:MPEG-4/AVC, 1280x720 (16:9), 23.976 fps ~ 4500 Kbps
    Информация о звуке:
    Аудио #1: AC3, 48 KHz 6 ch ~ 384 Kb/s (русский)
    Аудио #2: AC3, 48 KHz 6 ch ~ 384 Kb/s (английский)
    Субтитры:отсутствуют
    MI:

    Общее
    Уникальный идентификатор : 173841709923002240054745729494711488080 (0x82C8B20A7AFEBE109054414D3DE74E50)
    Полное имя : Q:TorFBiznes.radi.lubvi.2010.x264.HDTVRip.720p.mkv
    Формат : Matroska
    Версия формата : Version 2
    Размер файла : 3,11 Гбайт
    Продолжительность : 1 ч. 24 м.
    Общий поток : 5270 Кбит/сек
    Дата кодирования : UTC 2010-04-29 18:05:13
    Программа кодирования : mkvmerge v3.3.0 (;Language;) built on Mar 24 2010 14:59:24
    Библиотека кодирования : libebml v0.8.0 + libmatroska v0.9.0
    Видео
    Идентификатор : 1
    Формат : AVC
    Формат/Информация : Advanced Video Codec
    Профиль формата : High@L4.1
    Параметр CABAC формата : Да
    Параметр ReFrames формата : 9 кадров
    Идентификатор кодека : V_MPEG4/ISO/AVC
    Продолжительность : 1 ч. 24 м.
    Битрейт : 4500 Кбит/сек
    Ширина : 1280 пикселей
    Высота : 720 пикселей
    Соотношение сторон : 16:9
    Частота кадров : 23,976 кадра/сек
    Цветовое пространство : YUV
    Субдискретизация насыщенности : 4:2:0
    Битовая глубина : 8 бит
    Тип развёртки : Прогрессивная
    Бит/(Пиксели*Кадры) : 0.204
    Размер потока : 2,60 Гбайт (83%)
    Библиотека кодирования : x264 core 92 r1510 33d382a
    Настройки программы : cabac=1/ref=9/deblock=1:-3:-3/analyse=0x3:0x133/me=esa/subme=10/psy=1/psy_rd=1.25:0.00/mixed_ref=1/me_range=24/chroma_me=1/trellis=2/8x8dct=1/cqm=0/deadzone=21,11/fast_pskip=0/chroma_qp_offset=-2/threads=12/sliced_threads=0/nr=0/decimate=0/interlaced=0/constrained_intra=0/bframes=16/b_pyramid=2/b_adapt=2/b_bias=0/direct=3/wpredb=1/wpredp=2/keyint=240/keyint_min=24/scenecut=40/intra_refresh=0/rc_lookahead=0/rc=2pass/mbtree=0/bitrate=4500/ratetol=1.0/qcomp=0.80/qpmin=10/qpmax=51/qpstep=4/cplxblur=20.0/qblur=0.5/vbv_maxrate=40000/vbv_bufsize=30000/ip_ratio=1.10/pb_ratio=1.20/aq=1:1.00/nal_hrd=none
    Язык : English
    Default : Нет
    Forced : Нет
    Аудио #1
    Идентификатор : 2
    Формат : AC-3
    Формат/Информация : Audio Coding 3
    Расширение режима : CM (complete main)
    Идентификатор кодека : A_AC3
    Продолжительность : 1 ч. 24 м.
    Вид битрейта : Постоянный
    Битрейт : 384 Кбит/сек
    Каналы : 6 каналов
    Расположение каналов : Front: L C R, Side: L R, LFE
    Частота : 48,0 КГц
    Битовая глубина : 16 бит
    Метод сжатия : С потерями
    Размер потока : 232 Мбайт (7%)
    Язык : Russian
    Default : Да
    Forced : Нет
    Аудио #2
    Идентификатор : 3
    Формат : AC-3
    Формат/Информация : Audio Coding 3
    Расширение режима : CM (complete main)
    Идентификатор кодека : A_AC3
    Продолжительность : 1 ч. 24 м.
    Вид битрейта : Постоянный
    Битрейт : 384 Кбит/сек
    Каналы : 6 каналов
    Расположение каналов : Front: L C R, Side: L R, LFE
    Частота : 48,0 КГц
    Битовая глубина : 16 бит
    Метод сжатия : С потерями
    Размер потока : 232 Мбайт (7%)
    Язык : English
    Default : Нет
    Forced : Нет

    Скриншоты для ознакомления


    Онлайн видео Бизнес ради любви


    Размер скачиваемого торрента: 3.11 GB (3342303767 Bytes)

    Бизнес ради любви/Beauty and the Briefcase (2010) HDTVRip 720p | P2 скачать через торрент бесплатно
    загрузка...
    Рейтинг →
     (голосов: 1, оценка 5/5, голосовать можно 1 раз )

    Другие торренты по теме:

  • Евгений Грин - Бизнес идеи для начинающих (Работающие бизнес идеи) (2013) CAMRip
  • Даррен Тодд - Цифровое пиратство. Как пиратство меняет бизнес, общество и культуру (2013) RTF, FB2
  • Жестокий бизнес (2008) DVDRip
  • Специальный корреспондент. Российский бизнес. Период полураспада (2013) SATRip
  • Специальный корреспондент. Российский бизнес. Укрощение строптивых (2013) SATRip
  • Обезьяньи проделки / Обезьяний бизнес / Monkey Business (1931) DVDRip от egoleshik | P2
  • Рискованный бизнес / Risky Business (1983) BDRip-AVC от ExKinoRay
  • Евгений Грин - Как начать бизнес с нуля (2013) CAMRip


    • Комментарии (0):

      Информация

      Информация

        Посетители, находящиеся в группе Гости, не могут оставлять комментарии в данной новости.

        ↓ Меню



        ↓ Опрос

        А Вы добавили сайт в закладки?
        Да
        Не


        Top 10 за месяц (Фильмы)